Команда из штата Индиана / Hoosiers (1986) BDRip [H.264]

Ответить на тему
 
Автор Сообщение

MAG3131 ®

Пол: Мужской

Стаж: 52 года

Сообщений: 108

Откуда: Санкт-Петербург

Создавать темы 11-Сен-2020 21:12

[Цитировать]

Команда из штата Индиана / Hoosiers (1986) BDRip [H.264] - Производство: Великобритания, США / De Haven Productions, Hemdale
Жанр: драма, спорт
Режиссер: Дэвид Анспо
Продюсер: Анджело Пиццо, Джон Дэйли, Картер Де
Актеры: Джин Хэкмен, Барбара Херши, Деннис Хоппер, Шеб Вули, Ферн Персонс, Челси Росс, Роберт Суон, Майкл О’Гинн, Уил Девитт, Джон Роберт Томпсон
Описание:
Индиана, 1954 год. Тренер с независимым характером вместе с местным алкоголиком ведет школьную баскетбольную команду к первенству штата.

Возраст: 18+ (зрителям, достигшим 18 лет. запрещено для детей)
Рейтинг MPAA: PG (рекомендуется присутствие родителей)
Релиз от: MAG3131
Продолжительность: 01:55:03
Качество видео: BDRip
Перевод: Двухголосый
Субтитры: Отсутствуют
Видео: AVC/H.264, 720x392, ~3207 kbps, 23,976 fps
Аудио: AC3, 2 ch, 192 kbps (Русский - Двухголосый ''НТВ+'')

MediaInfo

Общее
Уникальный идентификатор : 242583224342643526434709729069810121288 (0xB67FD45F2454680AD24D280CAC14FA48)
Полное имя : Команда из штата Индиана (Hoosiers).mkv
Формат : Matroska
Версия формата : Version 2
Размер файла : 2,73 Гбайт
Продолжительность : 1 ч. 55 м.
Общий поток : 3 399 Кбит/сек
Дата кодирования : UTC 2020-08-30 14:46:17
Программа кодирования : mkvmerge v49.0.0 ('Sick Of Losing Soulmates') 64-bit
Библиотека кодирования : libebml v1.4.0 + libmatroska v1.6.1
Attachments : Лог кодирования.log
Видео
Идентификатор : 1
Формат : AVC
Формат/Информация : Advanced Video Codec
Профиль формата : High@L4.1
Настройки формата : CABAC / 12 Ref Frames
Параметр CABAC формата : Да
Параметр RefFrames формата : 12 кадров
Идентификатор кодека : V_MPEG4/ISO/AVC
Продолжительность : 1 ч. 55 м.
Битрейт : 3 207 Кбит/сек
Ширина : 720 пикселей
Высота : 392 пикселя
Соотношение сторон : 1,85:1
Режим частоты кадров : Постоянный
Частота кадров : 23,976 (24000/1001) кадра/сек
Цветовое пространство : YUV
Субдискретизация насыщенности : 4:2:0
Битовая глубина : 8 бит
Тип развёртки : Прогрессивная
Бит/(Пиксели*Кадры) : 0.474
Размер потока : 2,52 Гбайт (92%)
Заголовок : Команда из штата Индиана (Hoosiers)
Библиотека кодирования : x264 core 155 r2901 7d0ff22
Настройки программы : cabac=1 / ref=12 / deblock=1:-1:-1 / analyse=0x3:0x133 / me=umh / subme=11 / psy=1 / psy_rd=1.00:0.15 / mixed_ref=1 / me_range=64 / chroma_me=1 / trellis=2 / 8x8dct=1 / cqm=0 / deadzone=21,11 / fast_pskip=0 / chroma_qp_offset=-3 / threads=6 / lookahead_threads=1 / sliced_threads=0 / nr=0 / decimate=0 / interlaced=0 / bluray_compat=0 / constrained_intra=0 / bframes=16 / b_pyramid=2 / b_adapt=2 / b_bias=0 / direct=3 / weightb=1 / open_gop=0 / weightp=2 / keyint=240 / keyint_min=23 / scenecut=40 / intra_refresh=0 / rc_lookahead=60 / rc=2pass / mbtree=0 / bitrate=3207 / ratetol=1.0 / qcomp=0.60 / qpmin=0 / qpmax=69 / qpstep=4 / cplxblur=20.0 / qblur=0.5 / vbv_maxrate=50000 / vbv_bufsize=62500 / nal_hrd=none / filler=0 / ip_ratio=1.40 / pb_ratio=1.30 / aq=1:1.00
Язык : English
Default : Да
Forced : Нет
Аудио
Идентификатор : 2
Формат : AC-3
Формат/Информация : Audio Coding 3
Коммерческое название : Dolby Digital
Идентификатор кодека : A_AC3
Продолжительность : 1 ч. 55 м.
Вид битрейта : Постоянный
Битрейт : 192 Кбит/сек
Каналы : 2 канала
Channel layout : L R
Частота : 48,0 КГц
Частота кадров : 31,250 кадров/сек (1536 SPF)
Метод сжатия : С потерями
Размер потока : 158 Мбайт (6%)
Заголовок : Двухголосый ''НТВ+'' (AC-3, Постоянный, 192 Кбит/сек, 2 канала, 48,0 КГц)
Язык : Russian
Service kind : Complete Main
Default : Да
Forced : Нет
Меню
00:00:00.000 : :Глава 01
00:04:03.410 : :Глава 02
00:06:42.944 : :Глава 03
00:08:55.618 : :Глава 04
00:11:52.170 : :Глава 05
00:19:02.933 : :Глава 06
00:20:19.009 : :Глава 07
00:21:58.359 : :Глава 08
00:24:13.786 : :Глава 09
00:26:55.823 : :Глава 10
00:35:19.909 : :Глава 11
00:37:05.765 : :Глава 12
00:40:35.558 : :Глава 13
00:42:23.207 : :Глава 14
00:46:43.801 : :Глава 15
00:51:14.947 : :Глава 16
00:55:06.303 : :Глава 17
00:56:53.285 : :Глава 18
01:01:17.465 : :Глава 19
01:03:54.330 : :Глава 20
01:08:21.139 : :Глава 21
01:12:58.874 : :Глава 22
01:15:31.402 : :Глава 23
01:22:05.754 : :Глава 24
01:27:00.882 : :Глава 25
01:29:52.929 : :Глава 26
01:30:53.198 : :Глава 27
01:33:19.093 : :Глава 28
01:35:57.251 : :Глава 29
01:39:43.102 : :Глава 30
01:49:47.831 : :Глава 31
01:50:58.652 : :Глава 32
Скриншоты:
Если надо вернуться на сидирование раздачи пишите в ЛС.
По вопросам изготовления рипов под заказ обращайтесь в ЛС.


Последний раз редактировалось: MAG3131 (31 Июл 2021 23:30:18), всего редактировалось 1 раз
[Профиль] [ЛС]
Показать сообщения:    
Ответить на тему

Текущее время: 25-Июн 17:38

Часовой пояс: UTC + 3



Вы не можете начинать темы
Вы не можете отвечать на сообщения
Вы не можете редактировать свои сообщения
Вы не можете удалять свои сообщения
Вы не можете голосовать в опросах
Вы не можете прикреплять файлы к сообщениям
Вы не можете скачивать файлы