Крутой и цыпочки / Man of the House (2005) WEB-DLRip [H.264]

Ответить на тему
 
Автор Сообщение

MAG3131 ®

Пол: Мужской

Стаж: 52 года

Сообщений: 108

Откуда: Санкт-Петербург

Создавать темы 15-Сен-2020 02:36

[Цитировать]

Крутой и цыпочки / Man of the House (2005) WEB-DLRip [H.264] - Производство: США / Bel Air Entertainment, Revolution Studios
Жанр: комедия, боевик
Режиссер: Стивен Херек
Продюсер: Тодд Гарнер, Стивен Ретер, Эллин Стюарт
Актеры: Томми Ли Джонс, Седрик ''Развлекатель'', Кристина Милиан, Паула Гарсес, Моника Кина, Ванесса Ферлито, Келли Гарнер, Энн Арчер, Брайан Ван Холт, Шей Уигэм
Описание:
Невозмутимый, крутой и саркастичный Роланд Шарп - воплощенный идеал техасского рейнджера. Одинаково хорошо владеющий острым словцом и верным револьвером, он всегда с блеском выполнял любые задания. Но теперь его ждет поистине суровая миссия: герой должен... круглые сутки охранять пять девушек-болельщиц, ставших свидетелями убийства!
Под видом помощника тренера Шарп примыкает к их команде, еще не ведая, что ему предстоит не столько оборонять дерзких ангелочков, сколько обороняться от них самому. День за днем проказницы изобретают все новые каверзы, дабы вывести своего героически отражающего их нападки стража из себя. Но настает день, когда атака последует совсем с другой стороны...

Возраст: 12+ (зрителям, достигшим 12 лет)
Рейтинг MPAA: PG-13 (детям до 13 лет просмотр нежелателен)
Релиз от: MAG3131
Продолжительность: 01:39:56
Качество видео: WEB-DLRip
Перевод: Двухголосый
Субтитры: Отсутствуют
Видео: AVC/H.264, 720x300, ~1570 kbps, 23,976 fps
Аудио #1: AC3, 2 ch, 192 kbps (Русский - Двухголосый ''R5 / Видео Сервис'')
Аудио #2: AC3, 2 ch, 192 kbps (Русский - Двухголосый ''Tycoon'')

MediaInfo

Общее
Уникальный идентификатор : 229454682935187633947210669310697775920 (0xAC9F5D4E330140D018819A9958C3A330)
Полное имя : Крутой и цыпочки (2005 год) (Man Of The House) (2005 Year).mkv
Формат : Matroska
Версия формата : Version 4
Размер файла : 1,36 Гбайт
Продолжительность : 1 ч. 39 м.
Общий поток : 1 955 Кбит/сек
Дата кодирования : UTC 2020-09-13 22:42:13
Программа кодирования : mkvmerge v50.0.0 ('Awakenings') 64-bit
Библиотека кодирования : libebml v1.4.0 + libmatroska v1.6.2
Attachments : Лог кодирования.log
Видео
Идентификатор : 1
Формат : AVC
Формат/Информация : Advanced Video Codec
Профиль формата : High@L4.1
Настройки формата : CABAC / 12 Ref Frames
Параметр CABAC формата : Да
Параметр RefFrames формата : 12 кадров
Идентификатор кодека : V_MPEG4/ISO/AVC
Продолжительность : 1 ч. 39 м.
Битрейт : 1 570 Кбит/сек
Ширина : 720 пикселей
Высота : 300 пикселей
Соотношение сторон : 2,40:1
Режим частоты кадров : Постоянный
Частота кадров : 23,976 (24000/1001) кадра/сек
Цветовое пространство : YUV
Субдискретизация насыщенности : 4:2:0
Битовая глубина : 8 бит
Тип развёртки : Прогрессивная
Бит/(Пиксели*Кадры) : 0.303
Размер потока : 1,07 Гбайт (78%)
Заголовок : Крутой и цыпочки (2005 год) (Man Of The House) (2005 Year)
Библиотека кодирования : x264 core 157 r2969 d4099dd
Настройки программы : cabac=1 / ref=12 / deblock=1:-1:-1 / analyse=0x3:0x133 / me=umh / subme=11 / psy=1 / psy_rd=1.00:0.15 / mixed_ref=1 / me_range=64 / chroma_me=1 / trellis=2 / 8x8dct=1 / cqm=0 / deadzone=21,11 / fast_pskip=0 / chroma_qp_offset=-3 / threads=6 / lookahead_threads=1 / sliced_threads=0 / nr=0 / decimate=0 / interlaced=0 / bluray_compat=0 / constrained_intra=0 / bframes=16 / b_pyramid=2 / b_adapt=2 / b_bias=0 / direct=3 / weightb=1 / open_gop=0 / weightp=2 / keyint=240 / keyint_min=23 / scenecut=40 / intra_refresh=0 / rc_lookahead=60 / rc=2pass / mbtree=0 / bitrate=1570 / ratetol=1.0 / qcomp=0.60 / qpmin=0 / qpmax=69 / qpstep=4 / cplxblur=20.0 / qblur=0.5 / vbv_maxrate=50000 / vbv_bufsize=62500 / nal_hrd=none / filler=0 / ip_ratio=1.40 / pb_ratio=1.30 / aq=1:1.00
Язык : English
Default : Да
Forced : Нет
Аудио #1
Идентификатор : 2
Формат : AC-3
Формат/Информация : Audio Coding 3
Коммерческое название : Dolby Digital
Идентификатор кодека : A_AC3
Продолжительность : 1 ч. 39 м.
Вид битрейта : Постоянный
Битрейт : 192 Кбит/сек
Каналы : 2 канала
Channel layout : L R
Частота : 48,0 КГц
Частота кадров : 31,250 кадров/сек (1536 SPF)
Метод сжатия : С потерями
Размер потока : 137 Мбайт (10%)
Заголовок : Двухголосый ''R5 / Видео Сервис'' (AC-3, Постоянный, 192 Кбит/сек, 2 канала, 48,0 КГц)
Язык : Russian
Service kind : Complete Main
Default : Да
Forced : Нет
Аудио #2
Идентификатор : 3
Формат : AC-3
Формат/Информация : Audio Coding 3
Коммерческое название : Dolby Digital
Идентификатор кодека : A_AC3
Продолжительность : 1 ч. 39 м.
Вид битрейта : Постоянный
Битрейт : 192 Кбит/сек
Каналы : 2 канала
Channel layout : L R
Частота : 48,0 КГц
Частота кадров : 31,250 кадров/сек (1536 SPF)
Метод сжатия : С потерями
Размер потока : 137 Мбайт (10%)
Заголовок : Двухголосый ''Tycoon'' (AC-3, Постоянный, 192 Кбит/сек, 2 канала, 48,0 КГц)
Язык : Russian
Service kind : Complete Main
Default : Нет
Forced : Нет
Меню
00:00:00.000 : en:Start
00:06:27.000 : en:Roland
00:09:33.000 : en:Eyewitnesses
00:12:19.000 : en:Busy Dad
00:13:52.000 : en:Cheerleaders
00:17:28.000 : en:Two-Way Mirror
00:19:24.000 : en:24 Hour Protection
00:23:06.000 : en:New Ground Rules
00:26:34.000 : en:"Gun!"
00:29:11.000 : en:Part of the Job
00:31:39.000 : en:Prof. Molly McCarthy
00:35:17.000 : en:Secrets Over Pizza
00:38:46.000 : en:Covering Up
00:42:22.000 : en:Sgt. Ranger Nichols
00:47:52.000 : en:Wheels
00:51:01.000 : en:"Show us what you got."
00:54:56.000 : en:"Tell her you miss her."
00:56:25.000 : en:Chance Meeting
00:59:26.000 : en:Roland's Invitation
01:02:50.000 : en:Grooming Tips
01:06:30.000 : en:Too Sexy
01:09:05.000 : en:Wine and Willie
01:14:24.000 : en:Roll Call
01:16:59.000 : en:Hex Rally
01:18:46.000 : en:Turning up the Heat
01:21:46.000 : en:Good Parent
01:25:11.000 : en:Roland's Angels
01:31:49.000 : en:Six Months Later?
Скриншоты:
Если надо вернуться на сидирование раздачи пишите в ЛС.
По вопросам изготовления рипов под заказ обращайтесь в ЛС.
[Профиль] [ЛС]
Показать сообщения:    
Ответить на тему

Текущее время: 25-Июн 17:25

Часовой пояс: UTC + 3



Вы не можете начинать темы
Вы не можете отвечать на сообщения
Вы не можете редактировать свои сообщения
Вы не можете удалять свои сообщения
Вы не можете голосовать в опросах
Вы не можете прикреплять файлы к сообщениям
Вы не можете скачивать файлы