Скуби-Ду / Scooby-Doo (2002) BDRip [H.264]

Ответить на тему
 
Автор Сообщение

MAG3131 ®

Пол: Мужской

Стаж: 52 года

Сообщений: 108

Откуда: Санкт-Петербург

Создавать темы 06-Ноя-2021 06:29

[Цитировать]

Скуби-Ду / Scooby-Doo (2002) BDRip [H.264] - Производство: США, Австралия / Atlas Entertainment, Mosaic Media Group, Warner Bros. Pictures
Жанр: фэнтези, комедия, детектив, приключения, семейный
Режиссер: Раджа Госнелл
Продюсер: Чарльз Ровен, Ричард Сакл, Джозеф Барбера
Актеры: Фредди Принц мл., Сара Мишель Геллар, Мэттью Лиллард, Линда Карделлини, Роуэн Эткинсон, Айла Фишер, Мигель А. Нуньес мл., Стивен Грайвз, Чарльз Стэн Фрэзиер, Крэйг Баллок
Описание:
Два года спустя после того, как Тайная корпорация распалась из-за возникших противоречий Скуби-Ду и его сообразительных приятелей, раскрывших не одно преступление, Фреда, Дафну, Шэгги и Велму, поодиночке вызывают на Зловещий остров, чтобы они начали расследование серии паранормальных явлений, происходящих в Спринг-Брейк.
Опасаясь, что его невероятно популярный курорт на самом деле может быть населен привидениями, владелец Зловещего острова Эмиль Мондавариус пытается воссоединить легендарных детективов, чтобы те разрешили загадку, пока сверхъестественная тайна не распугала всех отдыхающих студентов.
Скуби-Ду и его команде придется преодолеть личные разногласия и по-новому взглянуть на мнимых вампиров и нереальных привидений. И все это, чтобы распутать дело, спасти самих себя, а возможно... и весь мир...

Возраст: 12+ (зрителям, достигшим 12 лет)
Рейтинг MPAA: PG (рекомендуется присутствие родителей)
Релиз от: MAG3131
Продолжительность: 01:26:35
Качество видео: BDRip
Перевод: Дублированный
Субтитры: Отсутствуют
Видео: AVC/H.264, 720x408, ~4326 kbps, 23,976 fps
Аудио: AC3, 2 ch, 192 kbps (Русский - Дублированный ''Мосфильм-Мастер / R5'')

MediaInfo

Общее
Уникальный идентификатор : 3276704746062503778675496888052941284 (0x27712045A9B6516632221CB6B8F01E4)
Полное имя : Скуби-Ду - 04 ''Скуби-Ду - 01'' (Scooby-Doo - 04 ''Scooby-Doo - 01'').mkv
Формат : Matroska
Версия формата : Version 4
Размер файла : 2,73 Гбайт
Продолжительность : 1 ч. 26 м.
Общий поток : 4 518 Кбит/сек
Дата кодирования : UTC 2021-10-28 02:28:53
Программа кодирования : mkvmerge v62.0.0 ('Apollo') 64-bit
Библиотека кодирования : libebml v1.4.2 + libmatroska v1.6.4
Attachments : Лог кодирования.log
Видео
Идентификатор : 1
Формат : AVC
Формат/Информация : Advanced Video Codec
Профиль формата : High@L4.1
Настройки формата : CABAC / 12 Ref Frames
Параметр CABAC формата : Да
Параметр RefFrames формата : 12 кадров
Идентификатор кодека : V_MPEG4/ISO/AVC
Продолжительность : 1 ч. 26 м.
Битрейт : 4 326 Кбит/сек
Ширина : 720 пикселей
Высота : 408 пикселей
Соотношение сторон : 16:9
Режим частоты кадров : Постоянный
Частота кадров : 23,976 (24000/1001) кадра/сек
Цветовое пространство : YUV
Субдискретизация насыщенности : 4:2:0
Битовая глубина : 8 бит
Тип развёртки : Прогрессивная
Бит/(Пиксели*Кадры) : 0.614
Размер потока : 2,56 Гбайт (94%)
Заголовок : Скуби-Ду - 04 ''Скуби-Ду - 01'' (Scooby-Doo - 04 ''Scooby-Doo - 01'')
Библиотека кодирования : x264 core 157 r2969 d4099dd
Настройки программы : cabac=1 / ref=12 / deblock=1:-1:-1 / analyse=0x3:0x133 / me=umh / subme=11 / psy=1 / psy_rd=1.00:0.15 / mixed_ref=1 / me_range=64 / chroma_me=1 / trellis=2 / 8x8dct=1 / cqm=0 / deadzone=21,11 / fast_pskip=0 / chroma_qp_offset=-3 / threads=12 / lookahead_threads=3 / sliced_threads=0 / nr=0 / decimate=0 / interlaced=0 / bluray_compat=0 / constrained_intra=0 / bframes=16 / b_pyramid=2 / b_adapt=2 / b_bias=0 / direct=3 / weightb=1 / open_gop=0 / weightp=2 / keyint=240 / keyint_min=23 / scenecut=40 / intra_refresh=0 / rc_lookahead=60 / rc=2pass / mbtree=0 / bitrate=4326 / ratetol=1.0 / qcomp=0.60 / qpmin=0 / qpmax=69 / qpstep=4 / cplxblur=20.0 / qblur=0.5 / vbv_maxrate=50000 / vbv_bufsize=62500 / nal_hrd=none / filler=0 / ip_ratio=1.40 / pb_ratio=1.30 / aq=1:1.00
Язык : English
Default : Да
Forced : Нет
Аудио
Идентификатор : 2
Формат : AC-3
Формат/Информация : Audio Coding 3
Коммерческое название : Dolby Digital
Идентификатор кодека : A_AC3
Продолжительность : 1 ч. 26 м.
Вид битрейта : Постоянный
Битрейт : 192 Кбит/сек
Каналы : 2 канала
Channel layout : L R
Частота : 48,0 КГц
Частота кадров : 31,250 кадров/сек (1536 SPF)
Метод сжатия : С потерями
Размер потока : 119 Мбайт (4%)
Заголовок : Дублированный ''Мосфильм-Мастер / R5'' (AC-3, Постоянный, 192 Кбит/сек, 2 канала, 48,0 КГц)
Язык : Russian
Service kind : Complete Main
Default : Да
Forced : Нет
Меню
00:00:00.000 : :Глава 01
00:07:39.959 : :Глава 02
00:14:59.273 : :Глава 03
00:24:42.564 : :Глава 04
00:31:32.641 : :Глава 05
00:37:28.830 : :Глава 06
00:45:36.776 : :Глава 07
00:52:45.621 : :Глава 08
00:58:35.512 : :Глава 09
01:04:21.107 : :Глава 10
01:10:58.129 : :Глава 11
01:15:18.931 : :Глава 12
Скриншоты:
Если надо вернуться на сидирование раздачи пишите в ЛС.
По вопросам изготовления рипов под заказ обращайтесь в ЛС.
[Профиль] [ЛС]
Показать сообщения:    
Ответить на тему

Текущее время: 24-Май 08:49

Часовой пояс: UTC + 3



Вы не можете начинать темы
Вы не можете отвечать на сообщения
Вы не можете редактировать свои сообщения
Вы не можете удалять свои сообщения
Вы не можете голосовать в опросах
Вы не можете прикреплять файлы к сообщениям
Вы не можете скачивать файлы