Скуби-Ду 2: Монстры на свободе / Scooby Doo 2: Monsters Unleashed (2004) BDRip [H.264]

Ответить на тему
 
Автор Сообщение

MAG3131 ®

Пол: Мужской

Стаж: 52 года

Сообщений: 108

Откуда: Санкт-Петербург

Создавать темы 07-Ноя-2021 20:45

[Цитировать]

Скуби-Ду 2: Монстры на свободе / Scooby Doo 2: Monsters Unleashed (2004) BDRip [H.264] - Производство: США, Канада / Mosaic Media Group, Scooby Two Films, Warner Bros. Pictures
Жанр: ужасы, фантастика, фэнтези, комедия, детектив, приключения, семейный
Режиссер: Раджа Госнелл
Продюсер: Чарльз Ровен, Ричард Сакл, Джозеф Барбера
Актеры: Фредди Принц мл., Сара Мишель Геллар, Мэттью Лиллард, Линда Карделлини, Сет Грин, Питер Бойл, Тим Блейк Нельсон, Алисия Сильверстоун, Нил Фаннинг, Пэт О’Брайэн
Описание:
На этот раз Скуби-Ду и его приятелям предстоит сразиться с замаскированным злодеем, который замышляет захватить город Кулсвиль, наводнив его привидениями.
Эти существа, появляющиеся на свет благодаря специальной машине по генерированию монстров, должны устроить в городке настоящий переполох. Но благодаря усилиям «Тайной корпорации» Кулсвиль будет непременно спасен!

Возраст: 6+ (зрителям, достигшим 6 лет)
Рейтинг MPAA: PG (рекомендуется присутствие родителей)
Релиз от: MAG3131
Продолжительность: 01:32:50
Качество видео: BDRip
Перевод: Дублированный
Субтитры: Отсутствуют
Видео: AVC/H.264, 720x408, ~1913 kbps, 23,976 fps
Аудио: AC3, 2 ch, 192 kbps (Русский - Дублированный ''Мосфильм-Мастер / R5'')

MediaInfo

Общее
Уникальный идентификатор : 48678950491560869199797070009015710900 (0x249F398F331FD3D227CEB8ADB85BB4B4)
Полное имя : Скуби-Ду - 05 ''Скуби-Ду - 02 ''Монстры на свободе'''' (Scooby-Doo - 05 ''Scooby-Doo - 02 ''Monsters Unleashed'''').mkv
Формат : Matroska
Версия формата : Version 4
Размер файла : 1,37 Гбайт
Продолжительность : 1 ч. 32 м.
Общий поток : 2 106 Кбит/сек
Дата кодирования : UTC 2021-11-02 00:49:36
Программа кодирования : mkvmerge v62.0.0 ('Apollo') 64-bit
Библиотека кодирования : libebml v1.4.2 + libmatroska v1.6.4
Attachments : Лог кодирования.log
Видео
Идентификатор : 1
Формат : AVC
Формат/Информация : Advanced Video Codec
Профиль формата : High@L4.1
Настройки формата : CABAC / 12 Ref Frames
Параметр CABAC формата : Да
Параметр RefFrames формата : 12 кадров
Идентификатор кодека : V_MPEG4/ISO/AVC
Продолжительность : 1 ч. 32 м.
Битрейт : 1 913 Кбит/сек
Ширина : 720 пикселей
Высота : 408 пикселей
Соотношение сторон : 16:9
Режим частоты кадров : Постоянный
Частота кадров : 23,976 (24000/1001) кадра/сек
Цветовое пространство : YUV
Субдискретизация насыщенности : 4:2:0
Битовая глубина : 8 бит
Тип развёртки : Прогрессивная
Бит/(Пиксели*Кадры) : 0.272
Размер потока : 1,21 Гбайт (89%)
Заголовок : Скуби-Ду - 05 ''Скуби-Ду - 02 ''Монстры на свободе'''' (Scooby-Doo - 05 ''Scooby-Doo - 02 ''Monsters Unleashed'''')
Библиотека кодирования : x264 core 157 r2969 d4099dd
Настройки программы : cabac=1 / ref=12 / deblock=1:-1:-1 / analyse=0x3:0x133 / me=umh / subme=11 / psy=1 / psy_rd=1.00:0.15 / mixed_ref=1 / me_range=64 / chroma_me=1 / trellis=2 / 8x8dct=1 / cqm=0 / deadzone=21,11 / fast_pskip=0 / chroma_qp_offset=-3 / threads=12 / lookahead_threads=3 / sliced_threads=0 / nr=0 / decimate=0 / interlaced=0 / bluray_compat=0 / constrained_intra=0 / bframes=16 / b_pyramid=2 / b_adapt=2 / b_bias=0 / direct=3 / weightb=1 / open_gop=0 / weightp=2 / keyint=240 / keyint_min=23 / scenecut=40 / intra_refresh=0 / rc_lookahead=60 / rc=2pass / mbtree=0 / bitrate=1913 / ratetol=1.0 / qcomp=0.60 / qpmin=0 / qpmax=69 / qpstep=4 / cplxblur=20.0 / qblur=0.5 / vbv_maxrate=50000 / vbv_bufsize=62500 / nal_hrd=none / filler=0 / ip_ratio=1.40 / pb_ratio=1.30 / aq=1:1.00
Язык : English
Default : Да
Forced : Нет
Аудио
Идентификатор : 2
Формат : AC-3
Формат/Информация : Audio Coding 3
Коммерческое название : Dolby Digital
Идентификатор кодека : A_AC3
Продолжительность : 1 ч. 32 м.
Вид битрейта : Постоянный
Битрейт : 192 Кбит/сек
Каналы : 2 канала
Channel layout : L R
Частота : 48,0 КГц
Частота кадров : 31,250 кадров/сек (1536 SPF)
Метод сжатия : С потерями
Размер потока : 127 Мбайт (9%)
Заголовок : Дублированный ''Мосфильм-Мастер / R5'' (AC-3, Постоянный, 192 Кбит/сек, 2 канала, 48,0 КГц)
Язык : Russian
Service kind : Complete Main
Default : Да
Forced : Нет
Меню
00:00:00.000 : en:Chapter 01
00:04:29.269 : en:Chapter 02
00:07:36.539 : en:Chapter 03
00:11:18.511 : en:Chapter 04
00:16:14.306 : en:Chapter 05
00:21:19.695 : en:Chapter 06
00:25:27.901 : en:Chapter 07
00:29:36.941 : en:Chapter 08
00:32:50.385 : en:Chapter 09
00:35:28.751 : en:Chapter 10
00:39:45.049 : en:Chapter 11
00:41:17.933 : en:Chapter 12
00:44:16.654 : en:Chapter 13
00:45:47.619 : en:Chapter 14
00:49:12.616 : en:Chapter 15
00:53:31.333 : en:Chapter 16
00:58:10.945 : en:Chapter 17
01:01:47.995 : en:Chapter 18
01:03:45.988 : en:Chapter 19
01:05:40.895 : en:Chapter 20
01:08:51.043 : en:Chapter 21
01:12:28.218 : en:Chapter 22
01:16:14.820 : en:Chapter 23
01:22:14.095 : en:Chapter 24
01:26:04.617 : en:Chapter 25
01:32:48.354 : en:Chapter 26
Скриншоты:
Если надо вернуться на сидирование раздачи пишите в ЛС.
По вопросам изготовления рипов под заказ обращайтесь в ЛС.
[Профиль] [ЛС]
Показать сообщения:    
Ответить на тему

Текущее время: 24-Май 08:22

Часовой пояс: UTC + 3



Вы не можете начинать темы
Вы не можете отвечать на сообщения
Вы не можете редактировать свои сообщения
Вы не можете удалять свои сообщения
Вы не можете голосовать в опросах
Вы не можете прикреплять файлы к сообщениям
Вы не можете скачивать файлы