Большой Стэн / Big Stan (2007) BDRip [H.264]

Ответить на тему
 
Автор Сообщение

MAG3131 ®

Пол: Мужской

Стаж: 52 года

Сообщений: 108

Откуда: Санкт-Петербург

Создавать темы 08-Ноя-2021 00:26

[Цитировать]

Большой Стэн / Big Stan (2007) BDRip [H.264] - Производство: США / Crystal Sky Pictures, Silver Nitrate Pictures, Velocity Pictures
Жанр: боевик, комедия
Режиссер: Роб Шнайдер
Продюсер: Дэвид Хиллари, Тимоти Уэйн Петернел, Джон Шнайдер
Актеры: Роб Шнайдер, Дэвид Кэрредин, Дженнифер Моррисон, Скотт Уилсон, Генри Гибсон, М. Эммет Уолш, Сэлли Кёркленд, Джексон Рэтбоун, Боб Сапп, Ричард Кайнд
Описание:
Стэн в панике – его ждет срок за мошенничество. И его очень пугает надвигающееся тюремное заключение. Чтобы обезопасить себя от разного рода неожиданностей, Стэн обращается за помощью к Мастеру боевых искусств, который сможет научить его паре приемов.

Возраст: 16+ (зрителям, достигшим 16 лет)
Рейтинг MPAA: R (лицам до 17 лет обязательно присутствие взрослого)
Релиз от: MAG3131
Продолжительность: 01:49:07
Качество видео: BDRip
Перевод: Дублированный
Субтитры: Отсутствуют
Видео: AVC/H.264, 720x392, ~1598 kbps, 23,976 fps
Аудио: AC3, 2 ch, 192 kbps (Русский - Дублированный ''Мосфильм-Мастер / R5'')

MediaInfo

Общее
Уникальный идентификатор : 113732728784485041263624838577767254205 (0x559020761D6DB2F7CEED7828622308BD)
Полное имя : Большой Стэн (Big Stan).mkv
Формат : Matroska
Версия формата : Version 4
Размер файла : 1,37 Гбайт
Продолжительность : 1 ч. 49 м.
Общий поток : 1 791 Кбит/сек
Дата кодирования : UTC 2021-11-06 02:17:58
Программа кодирования : mkvmerge v62.0.0 ('Apollo') 64-bit
Библиотека кодирования : libebml v1.4.2 + libmatroska v1.6.4
Attachments : Лог кодирования.log
Видео
Идентификатор : 1
Формат : AVC
Формат/Информация : Advanced Video Codec
Профиль формата : High@L4.1
Настройки формата : CABAC / 12 Ref Frames
Параметр CABAC формата : Да
Параметр RefFrames формата : 12 кадров
Идентификатор кодека : V_MPEG4/ISO/AVC
Продолжительность : 1 ч. 49 м.
Битрейт : 1 598 Кбит/сек
Ширина : 720 пикселей
Высота : 392 пикселя
Соотношение сторон : 1,85:1
Режим частоты кадров : Постоянный
Частота кадров : 23,976 (24000/1001) кадра/сек
Цветовое пространство : YUV
Субдискретизация насыщенности : 4:2:0
Битовая глубина : 8 бит
Тип развёртки : Прогрессивная
Бит/(Пиксели*Кадры) : 0.236
Размер потока : 1,19 Гбайт (87%)
Заголовок : Большой Стэн (Big Stan)
Библиотека кодирования : x264 core 157 r2969 d4099dd
Настройки программы : cabac=1 / ref=12 / deblock=1:-1:-1 / analyse=0x3:0x133 / me=umh / subme=11 / psy=1 / psy_rd=1.00:0.15 / mixed_ref=1 / me_range=64 / chroma_me=1 / trellis=2 / 8x8dct=1 / cqm=0 / deadzone=21,11 / fast_pskip=0 / chroma_qp_offset=-3 / threads=12 / lookahead_threads=3 / sliced_threads=0 / nr=0 / decimate=0 / interlaced=0 / bluray_compat=0 / constrained_intra=0 / bframes=16 / b_pyramid=2 / b_adapt=2 / b_bias=0 / direct=3 / weightb=1 / open_gop=0 / weightp=2 / keyint=240 / keyint_min=23 / scenecut=40 / intra_refresh=0 / rc_lookahead=60 / rc=2pass / mbtree=0 / bitrate=1598 / ratetol=1.0 / qcomp=0.60 / qpmin=0 / qpmax=69 / qpstep=4 / cplxblur=20.0 / qblur=0.5 / vbv_maxrate=50000 / vbv_bufsize=62500 / nal_hrd=none / filler=0 / ip_ratio=1.40 / pb_ratio=1.30 / aq=1:1.00
Язык : English
Default : Да
Forced : Нет
Аудио
Идентификатор : 2
Формат : AC-3
Формат/Информация : Audio Coding 3
Коммерческое название : Dolby Digital
Идентификатор кодека : A_AC3
Продолжительность : 1 ч. 49 м.
Вид битрейта : Постоянный
Битрейт : 192 Кбит/сек
Каналы : 2 канала
Channel layout : L R
Частота : 48,0 КГц
Частота кадров : 31,250 кадров/сек (1536 SPF)
Метод сжатия : С потерями
Размер потока : 150 Мбайт (11%)
Заголовок : Дублированный ''Мосфильм-Мастер / R5'' (AC-3, Постоянный, 192 Кбит/сек, 2 канала, 48,0 КГц)
Язык : Russian
Service kind : Complete Main
Default : Да
Forced : Нет
Меню
00:00:00.000 : :Глава 01
00:09:03.125 : :Глава 02
00:20:04.536 : :Глава 03
00:29:06.161 : :Глава 04
00:39:57.853 : :Глава 05
00:51:45.936 : :Глава 06
00:59:55.133 : :Глава 07
01:07:13.070 : :Глава 08
01:19:55.916 : :Глава 09
01:31:19.932 : :Глава 10
01:43:07.681 : :Глава 11
Скриншоты:
Если надо вернуться на сидирование раздачи пишите в ЛС.
По вопросам изготовления рипов под заказ обращайтесь в ЛС.
[Профиль] [ЛС]
Показать сообщения:    
Ответить на тему

Текущее время: 24-Май 10:07

Часовой пояс: UTC + 3



Вы не можете начинать темы
Вы не можете отвечать на сообщения
Вы не можете редактировать свои сообщения
Вы не можете удалять свои сообщения
Вы не можете голосовать в опросах
Вы не можете прикреплять файлы к сообщениям
Вы не можете скачивать файлы