Книга мастеров (2009) BDRip [H.264]

Ответить на тему
 
Автор Сообщение

MAG3131 ®

Пол: Мужской

Стаж: 52 года

Сообщений: 108

Откуда: Санкт-Петербург

Создавать темы 09-Ноя-2021 05:53

[Цитировать]

Книга мастеров (2009) BDRip [H.264] - Производство: Россия / Walt Disney Pictures
Жанр: фэнтези, семейный
Режиссер: Вадим Соколовский
Продюсер: Марина Жигалова-Озкан
Актеры: Мария Андреева, Максим Локтионов, Леонид Куравлёв, Валентин Гафт, Ольга Аросева, Александр Леньков, Ирина Апексимова, Михаил Ефремов, Гоша Куценко, Артур Смольянинов
Описание:
Миру грозит опасность. Скоро исполнится древнее пророчество и заточенная в башне Каменная Княжна вырвется на свободу, чтобы с помощью своих злых чар обрести власть над миром. Волею случая, судьбы людей оказываются в руках Ивана, которому предстоит пройти через множество испытаний. В его силах наделить Княжну волшебной властью и сделать владычицей земною, но он может и одолеть её, чтобы спасти свою возлюбленную Катю. На пути к цели Ивана подстерегает множество опасностей и приключений, его ждут встречи с героями русских сказок — Бабой Ягой, Русалкой, Кощеем Бессмертным и многими другими.

Возраст: 0+ (для любой зрительской аудитории)
Рейтинг MPAA: этот продукт не был классифицирован
Релиз от: MAG3131
Продолжительность: 01:41:13
Качество видео: BDRip
Перевод: Не требуется
Субтитры: Отсутствуют
Видео: AVC/H.264, 720x306, ~1738 kbps, 23,976 fps
Аудио: AC3, 2 ch, 192 kbps

MediaInfo

Общее
Уникальный идентификатор : 245231797059755267814689801628180552918 (0xB87DED16AE38222F4344D90511081CD6)
Полное имя : Книга мастеров (The Book Of Masters).mkv
Формат : Matroska
Версия формата : Version 4
Размер файла : 1,36 Гбайт
Продолжительность : 1 ч. 41 м.
Общий поток : 1 926 Кбит/сек
Дата кодирования : UTC 2021-11-08 11:39:18
Программа кодирования : mkvmerge v62.0.0 ('Apollo') 64-bit
Библиотека кодирования : libebml v1.4.2 + libmatroska v1.6.4
Attachments : Лог кодирования.log
Видео
Идентификатор : 1
Формат : AVC
Формат/Информация : Advanced Video Codec
Профиль формата : High@L4.1
Настройки формата : CABAC / 12 Ref Frames
Параметр CABAC формата : Да
Параметр RefFrames формата : 12 кадров
Идентификатор кодека : V_MPEG4/ISO/AVC
Продолжительность : 1 ч. 41 м.
Битрейт : 1 738 Кбит/сек
Ширина : 720 пикселей
Высота : 306 пикселей
Соотношение сторон : 2,35:1
Режим частоты кадров : Постоянный
Частота кадров : 23,976 (24000/1001) кадра/сек
Цветовое пространство : YUV
Субдискретизация насыщенности : 4:2:0
Битовая глубина : 8 бит
Тип развёртки : Прогрессивная
Бит/(Пиксели*Кадры) : 0.329
Размер потока : 1,20 Гбайт (88%)
Заголовок : Книга мастеров (The Book Of Masters)
Библиотека кодирования : x264 core 157 r2969 d4099dd
Настройки программы : cabac=1 / ref=12 / deblock=1:-1:-1 / analyse=0x3:0x133 / me=umh / subme=11 / psy=1 / psy_rd=1.00:0.15 / mixed_ref=1 / me_range=64 / chroma_me=1 / trellis=2 / 8x8dct=1 / cqm=0 / deadzone=21,11 / fast_pskip=0 / chroma_qp_offset=-3 / threads=10 / lookahead_threads=2 / sliced_threads=0 / nr=0 / decimate=0 / interlaced=0 / bluray_compat=0 / constrained_intra=0 / bframes=16 / b_pyramid=2 / b_adapt=2 / b_bias=0 / direct=3 / weightb=1 / open_gop=0 / weightp=2 / keyint=240 / keyint_min=23 / scenecut=40 / intra_refresh=0 / rc_lookahead=60 / rc=2pass / mbtree=0 / bitrate=1738 / ratetol=1.0 / qcomp=0.60 / qpmin=0 / qpmax=69 / qpstep=4 / cplxblur=20.0 / qblur=0.5 / vbv_maxrate=50000 / vbv_bufsize=62500 / nal_hrd=none / filler=0 / ip_ratio=1.40 / pb_ratio=1.30 / aq=1:1.00
Язык : Russian
Default : Да
Forced : Нет
Аудио
Идентификатор : 2
Формат : AC-3
Формат/Информация : Audio Coding 3
Коммерческое название : Dolby Digital
Идентификатор кодека : A_AC3
Продолжительность : 1 ч. 41 м.
Вид битрейта : Постоянный
Битрейт : 192 Кбит/сек
Каналы : 2 канала
Channel layout : L R
Частота : 48,0 КГц
Частота кадров : 31,250 кадров/сек (1536 SPF)
Метод сжатия : С потерями
Размер потока : 139 Мбайт (10%)
Заголовок : Оригинал (AC-3, Постоянный, 192 Кбит/сек, 2 канала, 48,0 КГц)
Язык : Russian
Service kind : Complete Main
Default : Да
Forced : Нет
Меню
00:00:00.000 : :Глава 01
00:05:27.160 : :Глава 02
00:10:09.776 : :Глава 03
00:14:44.092 : :Глава 04
00:24:05.361 : :Глава 05
00:28:40.218 : :Глава 06
00:36:48.873 : :Глава 07
00:45:18.382 : :Глава 08
00:48:49.260 : :Глава 09
00:54:08.871 : :Глава 10
01:00:00.639 : :Глава 11
01:03:43.111 : :Глава 12
01:07:10.235 : :Глава 13
01:13:38.122 : :Глава 14
01:20:07.386 : :Глава 15
01:24:25.435 : :Глава 16
01:31:44.749 : :Глава 17
01:38:03.377 : :Глава 18
Скриншоты:
Если надо вернуться на сидирование раздачи пишите в ЛС.
По вопросам изготовления рипов под заказ обращайтесь в ЛС.
[Профиль] [ЛС]
Показать сообщения:    
Ответить на тему

Текущее время: 24-Май 09:40

Часовой пояс: UTC + 3



Вы не можете начинать темы
Вы не можете отвечать на сообщения
Вы не можете редактировать свои сообщения
Вы не можете удалять свои сообщения
Вы не можете голосовать в опросах
Вы не можете прикреплять файлы к сообщениям
Вы не можете скачивать файлы