Двое: Я и моя тень / It Takes Two (1995) WEB-DLRip [H.264]

Ответить на тему
 
Автор Сообщение

MAG3131 ®

Пол: Мужской

Стаж: 52 года

Сообщений: 108

Откуда: Санкт-Петербург

Создавать темы 10-Ноя-2021 18:36

[Цитировать]

Двое: Я и моя тень / It Takes Two (1995) WEB-DLRip [H.264] - Производство: США / Dualstar Productions, Orr & Cruickshank, Rysher Entertainment
Жанр: мелодрама, комедия, семейный
Режиссер: Энди Теннант
Продюсер: Энди Коэн, Джим Крукшэнк, Мэл Эфрос
Актеры: Мэри-Кейт Олсен, Эшли Олсен, Кёрсти Элли, Стив Гуттенберг, Филип Боско, Джейн Сиббетт, Мишель Грисом, Десмонд Робертсон, Тайни Миллс, Шанелль Генри
Описание:
Живут на свете две удивительно похожие друг на друга девочки: болтушка и непоседа Аманда и тихая, спокойная Элисса. Они не сестрички. Их похожесть - ирония судьбы. Одна растет в сиротском приюте под опекой доброй воспитательницы Дианы, а другая - с очень богатым отцом-одиночкой. Папу хочет женить на себе противная и корыстолюбивая особа.
Но к счастью, две девочки встречаются в летнем лагере и принимают решение предотвратить намечающийся брак по расчету, а заодно и влюбить папу в хорошую воспитательницу Диану. Для осуществления своих планов девочки на время меняются местами...

Возраст: 12+ (зрителям, достигшим 12 лет)
Рейтинг MPAA: PG (рекомендуется присутствие родителей)
Релиз от: MAG3131
Продолжительность: 01:40:54
Качество видео: WEB-DLRip
Перевод: Многоголосый
Субтитры: Отсутствуют
Видео: AVC/H.264, 720x408, ~2714 kbps, 23,976 fps
Аудио: AC3, 2 ch, 192 kbps (Русский - Многоголосый ''СТС'' с вставками авторского ''Андрей Гаврилов'')

MediaInfo

Общее
Уникальный идентификатор : 35315877215603961847326239423732135400 (0x1A91972DE752CC6F49261012E0C435E8)
Полное имя : Двое ''Я и моя тень'' (1995 год) (It Takes Two) (1995 Year).mkv
Формат : Matroska
Версия формата : Version 4
Размер файла : 2,05 Гбайт
Продолжительность : 1 ч. 40 м.
Общий поток : 2 906 Кбит/сек
Дата кодирования : UTC 2021-11-07 12:49:18
Программа кодирования : mkvmerge v62.0.0 ('Apollo') 64-bit
Библиотека кодирования : libebml v1.4.2 + libmatroska v1.6.4
Attachments : Лог кодирования.log
Видео
Идентификатор : 1
Формат : AVC
Формат/Информация : Advanced Video Codec
Профиль формата : High@L4.1
Настройки формата : CABAC / 12 Ref Frames
Параметр CABAC формата : Да
Параметр RefFrames формата : 12 кадров
Идентификатор кодека : V_MPEG4/ISO/AVC
Продолжительность : 1 ч. 40 м.
Битрейт : 2 714 Кбит/сек
Ширина : 720 пикселей
Высота : 408 пикселей
Соотношение сторон : 16:9
Режим частоты кадров : Постоянный
Частота кадров : 23,976 (24000/1001) кадра/сек
Цветовое пространство : YUV
Субдискретизация насыщенности : 4:2:0
Битовая глубина : 8 бит
Тип развёртки : Прогрессивная
Бит/(Пиксели*Кадры) : 0.385
Размер потока : 1,87 Гбайт (91%)
Заголовок : Двое ''Я и моя тень'' (1995 год) (It Takes Two) (1995 Year)
Библиотека кодирования : x264 core 157 r2969 d4099dd
Настройки программы : cabac=1 / ref=12 / deblock=1:-1:-1 / analyse=0x3:0x133 / me=umh / subme=11 / psy=1 / psy_rd=1.00:0.15 / mixed_ref=1 / me_range=64 / chroma_me=1 / trellis=2 / 8x8dct=1 / cqm=0 / deadzone=21,11 / fast_pskip=0 / chroma_qp_offset=-3 / threads=12 / lookahead_threads=3 / sliced_threads=0 / nr=0 / decimate=0 / interlaced=0 / bluray_compat=0 / constrained_intra=0 / bframes=16 / b_pyramid=2 / b_adapt=2 / b_bias=0 / direct=3 / weightb=1 / open_gop=0 / weightp=2 / keyint=240 / keyint_min=23 / scenecut=40 / intra_refresh=0 / rc_lookahead=60 / rc=2pass / mbtree=0 / bitrate=2714 / ratetol=1.0 / qcomp=0.60 / qpmin=0 / qpmax=69 / qpstep=4 / cplxblur=20.0 / qblur=0.5 / vbv_maxrate=50000 / vbv_bufsize=62500 / nal_hrd=none / filler=0 / ip_ratio=1.40 / pb_ratio=1.30 / aq=1:1.00
Язык : English
Default : Да
Forced : Нет
Аудио
Идентификатор : 2
Формат : AC-3
Формат/Информация : Audio Coding 3
Коммерческое название : Dolby Digital
Идентификатор кодека : A_AC3
Продолжительность : 1 ч. 40 м.
Вид битрейта : Постоянный
Битрейт : 192 Кбит/сек
Каналы : 2 канала
Channel layout : L R
Частота : 48,0 КГц
Частота кадров : 31,250 кадров/сек (1536 SPF)
Метод сжатия : С потерями
Размер потока : 139 Мбайт (7%)
Заголовок : Многоголосый ''СТС'' с вставками авторского ''Андрей Гаврилов'' (AC-3, Постоянный, 192 Кбит/сек, 2 канала, 48,0 КГц)
Язык : Russian
Service kind : Complete Main
Default : Да
Forced : Нет
Меню
00:00:00.000 : :Chapter 01
00:04:25.434 : :Chapter 02
00:06:22.768 : :Chapter 03
00:08:28.835 : :Chapter 04
00:10:35.202 : :Chapter 05
00:19:55.536 : :Chapter 06
00:23:49.836 : :Chapter 07
00:28:44.737 : :Chapter 08
00:31:15.471 : :Chapter 09
00:36:10.871 : :Chapter 10
00:40:20.538 : :Chapter 11
00:41:55.938 : :Chapter 12
00:48:54.505 : :Chapter 13
00:52:00.373 : :Chapter 14
00:55:12.074 : :Chapter 15
01:02:19.708 : :Chapter 16
01:08:40.475 : :Chapter 17
01:13:48.942 : :Chapter 18
01:20:06.975 : :Chapter 19
01:25:47.442 : :Chapter 20
01:29:43.276 : :Chapter 21
01:33:48.110 : :Chapter 22
01:37:13.444 : :Chapter 23
Скриншоты:
Если надо вернуться на сидирование раздачи пишите в ЛС.
По вопросам изготовления рипов под заказ обращайтесь в ЛС.
[Профиль] [ЛС]
Показать сообщения:    
Ответить на тему

Текущее время: 24-Май 09:11

Часовой пояс: UTC + 3



Вы не можете начинать темы
Вы не можете отвечать на сообщения
Вы не можете редактировать свои сообщения
Вы не можете удалять свои сообщения
Вы не можете голосовать в опросах
Вы не можете прикреплять файлы к сообщениям
Вы не можете скачивать файлы