Скуби-Ду 4: Проклятье озерного монстра / Scooby-Doo! Curse of the Lake Monster (2010) BDRip [H.264]

Ответить на тему
 
Автор Сообщение

MAG3131 ®

Пол: Мужской

Стаж: 52 года

Сообщений: 108

Откуда: Санкт-Петербург

Создавать темы 12-Ноя-2021 23:48

[Цитировать]

Скуби-Ду 4: Проклятье озерного монстра / Scooby-Doo! Curse of the Lake Monster (2010) BDRip [H.264] - Производство: США / Atlas Entertainment, Cartoon Network, Nine/8 Entertainment, Telvan Productions, Warner Premiere
Жанр: мультфильм, фэнтези, триллер, мелодрама, комедия, детектив, приключения, семейный
Режиссер: Брайан Левант
Продюсер: Брайан Дж. Гилберт, Брайан Левант, Том Кенистон
Актеры: Робби Амелл, Хейли Киёко, Кейтлин Мелтон, Ник Палатас, Фрэнк Уэлкер, Тед МакГинли, Ричард Молл, Нишелль Николс, Мэрион Росс, Беверли Сандерс
Описание:
Скуби-Ду и его приятели вернулись к легендарным проклятиям! На этот раз жуткий монстр озера атакует Эри Пойнт, но Шегги, Скуби, Велма, Фред и Дафна готовы разоблачить все тайны.

Возраст: этот продукт не был классифицирован
Рейтинг MPAA: PG (рекомендуется присутствие родителей)
Релиз от: MAG3131
Продолжительность: 01:22:13
Качество видео: BDRip
Перевод: Дублированный
Субтитры: Отсутствуют
Видео: AVC/H.264, 720x408, ~2186 kbps, 23,976 fps
Аудио: AC3, 2 ch, 192 kbps (Русский - Дублированный ''Пифагор'' с вставками двухголосого ''RelizLab'')

MediaInfo

Общее
Уникальный идентификатор : 39287101536420783789050685601286941088 (0x1D8E6BA7B45989E4436288A3228369A0)
Полное имя : Скуби-Ду - 03 ''Скуби-Ду - 04 ''Проклятье озерного монстра'''' (Scooby-Doo - 03 ''Scooby-Doo - 04 ''Curse Of The Lake Monster'''').mkv
Формат : Matroska
Версия формата : Version 4
Размер файла : 1,37 Гбайт
Продолжительность : 1 ч. 22 м.
Общий поток : 2 379 Кбит/сек
Дата кодирования : UTC 2021-11-01 02:52:30
Программа кодирования : mkvmerge v62.0.0 ('Apollo') 64-bit
Библиотека кодирования : libebml v1.4.2 + libmatroska v1.6.4
Attachments : Лог кодирования.log
Видео
Идентификатор : 1
Формат : AVC
Формат/Информация : Advanced Video Codec
Профиль формата : High@L4.1
Настройки формата : CABAC / 12 Ref Frames
Параметр CABAC формата : Да
Параметр RefFrames формата : 12 кадров
Идентификатор кодека : V_MPEG4/ISO/AVC
Продолжительность : 1 ч. 22 м.
Битрейт : 2 186 Кбит/сек
Ширина : 720 пикселей
Высота : 408 пикселей
Соотношение сторон : 16:9
Режим частоты кадров : Постоянный
Частота кадров : 23,976 (24000/1001) кадра/сек
Цветовое пространство : YUV
Субдискретизация насыщенности : 4:2:0
Битовая глубина : 8 бит
Тип развёртки : Прогрессивная
Бит/(Пиксели*Кадры) : 0.310
Размер потока : 1,23 Гбайт (90%)
Заголовок : Скуби-Ду - 03 ''Скуби-Ду - 04 ''Проклятье озерного монстра'''' (Scooby-Doo - 03 ''Scooby-Doo - 04 ''Curse Of The Lake Monster'''')
Библиотека кодирования : x264 core 157 r2969 d4099dd
Настройки программы : cabac=1 / ref=12 / deblock=1:-1:-1 / analyse=0x3:0x133 / me=umh / subme=11 / psy=1 / psy_rd=1.00:0.15 / mixed_ref=1 / me_range=64 / chroma_me=1 / trellis=2 / 8x8dct=1 / cqm=0 / deadzone=21,11 / fast_pskip=0 / chroma_qp_offset=-3 / threads=12 / lookahead_threads=3 / sliced_threads=0 / nr=0 / decimate=0 / interlaced=0 / bluray_compat=0 / constrained_intra=0 / bframes=16 / b_pyramid=2 / b_adapt=2 / b_bias=0 / direct=3 / weightb=1 / open_gop=0 / weightp=2 / keyint=240 / keyint_min=23 / scenecut=40 / intra_refresh=0 / rc_lookahead=60 / rc=2pass / mbtree=0 / bitrate=2186 / ratetol=1.0 / qcomp=0.60 / qpmin=0 / qpmax=69 / qpstep=4 / cplxblur=20.0 / qblur=0.5 / vbv_maxrate=50000 / vbv_bufsize=62500 / nal_hrd=none / filler=0 / ip_ratio=1.40 / pb_ratio=1.30 / aq=1:1.00
Язык : English
Default : Да
Forced : Нет
Аудио
Идентификатор : 2
Формат : AC-3
Формат/Информация : Audio Coding 3
Коммерческое название : Dolby Digital
Идентификатор кодека : A_AC3
Продолжительность : 1 ч. 22 м.
Вид битрейта : Постоянный
Битрейт : 192 Кбит/сек
Каналы : 2 канала
Channel layout : L R
Частота : 48,0 КГц
Частота кадров : 31,250 кадров/сек (1536 SPF)
Метод сжатия : С потерями
Размер потока : 113 Мбайт (8%)
Заголовок : Дублированный ''Пифагор'' с вставками двухголосого ''RelizLab'' (AC-3, Постоянный, 192 Кбит/сек, 2 канала, 48,0 КГц)
Язык : Russian
Service kind : Complete Main
Default : Да
Forced : Нет
Меню
00:00:00.000 : en:Chapter 01
00:10:27.793 : en:Chapter 02
00:20:13.587 : en:Chapter 03
00:30:07.972 : en:Chapter 04
00:40:19.750 : en:Chapter 05
00:49:52.114 : en:Chapter 06
01:00:02.390 : en:Chapter 07
01:10:15.294 : en:Chapter 08
01:19:27.471 : en:Chapter 09
01:22:11.301 : en:Chapter 10
Скриншоты:
Если надо вернуться на сидирование раздачи пишите в ЛС.
По вопросам изготовления рипов под заказ обращайтесь в ЛС.
[Профиль] [ЛС]
Показать сообщения:    
Ответить на тему

Текущее время: 24-Май 09:59

Часовой пояс: UTC + 3



Вы не можете начинать темы
Вы не можете отвечать на сообщения
Вы не можете редактировать свои сообщения
Вы не можете удалять свои сообщения
Вы не можете голосовать в опросах
Вы не можете прикреплять файлы к сообщениям
Вы не можете скачивать файлы