После заката / After the Sunset (2004) BDRip [H.264]

Ответить на тему
 
Автор Сообщение

MAG3131 ®

Пол: Мужской

Стаж: 52 года

Сообщений: 108

Откуда: Санкт-Петербург

Создавать темы 14-Ноя-2021 21:30

[Цитировать]

После заката / After the Sunset (2004) BDRip [H.264] - Производство: США / Contrafilm, Firm Films, New Line Cinema, Rat Entertainment
Жанр: боевик, драма, комедия, криминал
Режиссер: Бретт Рэтнер
Продюсер: Бо Флинн, Джей Штерн, Трип Винсон
Актеры: Пирс Броснан, Сальма Хайек, Вуди Харрельсон, Дон Чидл, Наоми Харрис, Крис Пенн, Трой Гэрити, Обба Бабатунде, Расселл Хорнсби, Майкелти Уильямсон
Описание:
После успешного «последнего дела» профессиональный вор «завязывает» с криминалом и поселяется на райском островке. Его злейший враг, хитроумный агент ФБР, решает проверить, верен ли бывший преступник своему обещанию. Вскоре оба оказываются втянутыми в игру в «кошки-мышки»…

Возраст: 12+ (зрителям, достигшим 12 лет)
Рейтинг MPAA: PG-13 (детям до 13 лет просмотр нежелателен)
Релиз от: MAG3131
Продолжительность: 01:37:28
Качество видео: BDRip
Перевод: Дублированный
Субтитры: Отсутствуют
Видео: AVC/H.264, 720x304, ~1813 kbps, 23,976 fps
Аудио: AC3, 2 ch, 192 kbps (Русский - Дублированный ''Мосфильм-Мастер / Blu-ray CEE'' с вставками авторского ''Владимир Королев'')

MediaInfo

Общее
Уникальный идентификатор : 310495288154724601746090181871031075705 (0xE99737A14A1DEF1C9FD3C2E96704C379)
Полное имя : После заката (After The Sunset).mkv
Формат : Matroska
Версия формата : Version 4
Размер файла : 1,37 Гбайт
Продолжительность : 1 ч. 37 м.
Общий поток : 2 006 Кбит/сек
Дата кодирования : UTC 2021-11-10 15:18:48
Программа кодирования : mkvmerge v62.0.0 ('Apollo') 64-bit
Библиотека кодирования : libebml v1.4.2 + libmatroska v1.6.4
Attachments : Лог кодирования.log
Видео
Идентификатор : 1
Формат : AVC
Формат/Информация : Advanced Video Codec
Профиль формата : High@L4.1
Настройки формата : CABAC / 12 Ref Frames
Параметр CABAC формата : Да
Параметр RefFrames формата : 12 кадров
Идентификатор кодека : V_MPEG4/ISO/AVC
Продолжительность : 1 ч. 37 м.
Битрейт : 1 813 Кбит/сек
Ширина : 720 пикселей
Высота : 304 пикселя
Соотношение сторон : 2,35:1
Режим частоты кадров : Постоянный
Частота кадров : 23,976 (24000/1001) кадра/сек
Цветовое пространство : YUV
Субдискретизация насыщенности : 4:2:0
Битовая глубина : 8 бит
Тип развёртки : Прогрессивная
Бит/(Пиксели*Кадры) : 0.345
Размер потока : 1,21 Гбайт (88%)
Заголовок : После заката (After The Sunset)
Библиотека кодирования : x264 core 157 r2969 d4099dd
Настройки программы : cabac=1 / ref=12 / deblock=1:-1:-1 / analyse=0x3:0x133 / me=umh / subme=11 / psy=1 / psy_rd=1.00:0.15 / mixed_ref=1 / me_range=64 / chroma_me=1 / trellis=2 / 8x8dct=1 / cqm=0 / deadzone=21,11 / fast_pskip=0 / chroma_qp_offset=-3 / threads=9 / lookahead_threads=2 / sliced_threads=0 / nr=0 / decimate=0 / interlaced=0 / bluray_compat=0 / constrained_intra=0 / bframes=16 / b_pyramid=2 / b_adapt=2 / b_bias=0 / direct=3 / weightb=1 / open_gop=0 / weightp=2 / keyint=240 / keyint_min=23 / scenecut=40 / intra_refresh=0 / rc_lookahead=60 / rc=2pass / mbtree=0 / bitrate=1813 / ratetol=1.0 / qcomp=0.60 / qpmin=0 / qpmax=69 / qpstep=4 / cplxblur=20.0 / qblur=0.5 / vbv_maxrate=50000 / vbv_bufsize=62500 / nal_hrd=none / filler=0 / ip_ratio=1.40 / pb_ratio=1.30 / aq=1:1.00
Язык : English
Default : Да
Forced : Нет
Аудио
Идентификатор : 2
Формат : AC-3
Формат/Информация : Audio Coding 3
Коммерческое название : Dolby Digital
Идентификатор кодека : A_AC3
Продолжительность : 1 ч. 37 м.
Вид битрейта : Постоянный
Битрейт : 192 Кбит/сек
Каналы : 2 канала
Channel layout : L R
Частота : 48,0 КГц
Частота кадров : 31,250 кадров/сек (1536 SPF)
Метод сжатия : С потерями
Размер потока : 134 Мбайт (10%)
Заголовок : Дублированный ''Мосфильм-Мастер / Blu-ray CEE'' с вставками авторского ''Владимир Королев'' (AC-3, Постоянный, 192 Кбит/сек, 2 канала, 48,0 КГц)
Язык : Russian
Service kind : Complete Main
Default : Да
Forced : Нет
Меню
00:00:00.000 : :Глава 01
00:09:49.380 : :Глава 02
00:20:03.911 : :Глава 03
00:30:02.258 : :Глава 04
00:39:45.216 : :Глава 05
00:50:36.575 : :Глава 06
00:59:42.120 : :Глава 07
01:09:48.559 : :Глава 08
01:19:45.780 : :Глава 09
01:32:06.145 : :Глава 10
Скриншоты:
Если надо вернуться на сидирование раздачи пишите в ЛС.
По вопросам изготовления рипов под заказ обращайтесь в ЛС.
[Профиль] [ЛС]
Показать сообщения:    
Ответить на тему

Текущее время: 24-Май 09:01

Часовой пояс: UTC + 3



Вы не можете начинать темы
Вы не можете отвечать на сообщения
Вы не можете редактировать свои сообщения
Вы не можете удалять свои сообщения
Вы не можете голосовать в опросах
Вы не можете прикреплять файлы к сообщениям
Вы не можете скачивать файлы