Черный пес / Black Dog (1998) BDRip [H.264]

Ответить на тему
 
Автор Сообщение

MAG3131 ®

Пол: Мужской

Стаж: 52 года

Сообщений: 108

Откуда: Санкт-Петербург

Создавать темы 21-Ноя-2021 00:51

[Цитировать]

Черный пес / Black Dog (1998) BDRip [H.264] - Производство: США, Великобритания, Франция, Германия, Япония / BBC Television Centre, Black Dog Productions, H2L Media Group, Marubeni Corporation, Mutual Film Corporation, Prelude Pictures, Raffaella Productions, Saltire Entertainment, Tele-München (TMG), Toho-Towa, UGC PH, Universal Pictures
Жанр: боевик, триллер, драма, криминал
Режиссер: Кевин Хукс
Продюсер: Раффаэлла Де Лаурентис, Майкл Илич мл., Марк В. Кох
Актеры: Патрик Суэйзи, Мит Лоаф, Рэнди Трэвис, Гэбриел Коссес, Брайан Винсент, Грэм Беккел, Бренда Стронг, Расти Де Уиз, Сирил О’Райлли, Эрин Бродерик
Описание:
Водитель-дальнобойщик Джек Круз только что вышел из тюрьмы и сейчас находится под полицейским надзором. Однако, обстоятельства вынуждают его, ради благополучия жены и ребенка, согласиться на перевозку левого груза.

Возраст: 16+ (зрителям, достигшим 16 лет)
Рейтинг MPAA: PG-13 (детям до 13 лет просмотр нежелателен)
Релиз от: MAG3131
Продолжительность: 01:28:19
Качество видео: BDRip
Перевод: Многоголосый
Субтитры: Отсутствуют
Видео: AVC/H.264, 720x308, ~1635 kbps, 23,976 fps
Аудио #01: AC3, 2 ch, 192 kbps (Русский - Многоголосый ''ОРТ'' с вставками многоголосого ''Че'')
Аудио #02: AC3, 2 ch, 192 kbps (Русский - Многоголосый ''РТР'' с вставками многоголосого ''ОРТ'')
Аудио #03: AC3, 2 ch, 192 kbps (Русский - Многоголосый ''Че'' с вставками многоголосого ''ОРТ'')

MediaInfo

Общее
Уникальный идентификатор : 193802800130896033445274698403459857603 (0x91CD0FC587AE92AFB544E497120B7CC3)
Полное имя : Черный пес (Black Dog).mkv
Формат : Matroska
Версия формата : Version 4
Размер файла : 1,37 Гбайт
Продолжительность : 1 ч. 28 м.
Общий поток : 2 213 Кбит/сек
Дата кодирования : UTC 2021-11-15 01:00:21
Программа кодирования : mkvmerge v63.0.0 ('Everything') 64-bit
Библиотека кодирования : libebml v1.4.2 + libmatroska v1.6.4
Attachments : Лог кодирования.log
Видео
Идентификатор : 1
Формат : AVC
Формат/Информация : Advanced Video Codec
Профиль формата : High@L4.1
Настройки формата : CABAC / 12 Ref Frames
Параметр CABAC формата : Да
Параметр RefFrames формата : 12 кадров
Идентификатор кодека : V_MPEG4/ISO/AVC
Продолжительность : 1 ч. 28 м.
Битрейт : 1 635 Кбит/сек
Ширина : 720 пикселей
Высота : 308 пикселей
Соотношение сторон : 2,35:1
Режим частоты кадров : Постоянный
Частота кадров : 23,976 (24000/1001) кадра/сек
Цветовое пространство : YUV
Субдискретизация насыщенности : 4:2:0
Битовая глубина : 8 бит
Тип развёртки : Прогрессивная
Бит/(Пиксели*Кадры) : 0.308
Размер потока : 1 006 Мбайт (72%)
Заголовок : Черный пес (Black Dog)
Библиотека кодирования : x264 core 157 r2969 d4099dd
Настройки программы : cabac=1 / ref=12 / deblock=1:-1:-1 / analyse=0x3:0x133 / me=umh / subme=11 / psy=1 / psy_rd=1.00:0.15 / mixed_ref=1 / me_range=64 / chroma_me=1 / trellis=2 / 8x8dct=1 / cqm=0 / deadzone=21,11 / fast_pskip=0 / chroma_qp_offset=-3 / threads=10 / lookahead_threads=2 / sliced_threads=0 / nr=0 / decimate=0 / interlaced=0 / bluray_compat=0 / constrained_intra=0 / bframes=16 / b_pyramid=2 / b_adapt=2 / b_bias=0 / direct=3 / weightb=1 / open_gop=0 / weightp=2 / keyint=240 / keyint_min=23 / scenecut=40 / intra_refresh=0 / rc_lookahead=60 / rc=2pass / mbtree=0 / bitrate=1635 / ratetol=1.0 / qcomp=0.60 / qpmin=0 / qpmax=69 / qpstep=4 / cplxblur=20.0 / qblur=0.5 / vbv_maxrate=50000 / vbv_bufsize=62500 / nal_hrd=none / filler=0 / ip_ratio=1.40 / pb_ratio=1.30 / aq=1:1.00
Язык : English
Default : Да
Forced : Нет
Аудио #1
Идентификатор : 2
Формат : AC-3
Формат/Информация : Audio Coding 3
Коммерческое название : Dolby Digital
Идентификатор кодека : A_AC3
Продолжительность : 1 ч. 28 м.
Вид битрейта : Постоянный
Битрейт : 192 Кбит/сек
Каналы : 2 канала
Channel layout : L R
Частота : 48,0 КГц
Частота кадров : 31,250 кадров/сек (1536 SPF)
Метод сжатия : С потерями
Размер потока : 121 Мбайт (9%)
Заголовок : Многоголосый ''ОРТ'' с вставками многоголосого ''Че'' (AC-3, Постоянный, 192 Кбит/сек, 2 канала, 48,0 КГц)
Язык : Russian
Service kind : Complete Main
Default : Да
Forced : Нет
Аудио #2
Идентификатор : 3
Формат : AC-3
Формат/Информация : Audio Coding 3
Коммерческое название : Dolby Digital
Идентификатор кодека : A_AC3
Продолжительность : 1 ч. 28 м.
Вид битрейта : Постоянный
Битрейт : 192 Кбит/сек
Каналы : 2 канала
Channel layout : L R
Частота : 48,0 КГц
Частота кадров : 31,250 кадров/сек (1536 SPF)
Метод сжатия : С потерями
Размер потока : 121 Мбайт (9%)
Заголовок : Многоголосый ''РТР'' с вставками многоголосого ''ОРТ'' (AC-3, Постоянный, 192 Кбит/сек, 2 канала, 48,0 КГц)
Язык : Russian
Service kind : Complete Main
Default : Нет
Forced : Нет
Аудио #3
Идентификатор : 4
Формат : AC-3
Формат/Информация : Audio Coding 3
Коммерческое название : Dolby Digital
Идентификатор кодека : A_AC3
Продолжительность : 1 ч. 28 м.
Вид битрейта : Постоянный
Битрейт : 192 Кбит/сек
Каналы : 2 канала
Channel layout : L R
Частота : 48,0 КГц
Частота кадров : 31,250 кадров/сек (1536 SPF)
Метод сжатия : С потерями
Размер потока : 121 Мбайт (9%)
Заголовок : Многоголосый ''Че'' с вставками многоголосого ''ОРТ'' (AC-3, Постоянный, 192 Кбит/сек, 2 канала, 48,0 КГц)
Язык : Russian
Service kind : Complete Main
Default : Нет
Forced : Нет
Меню
00:00:00.000 : :Глава 01
00:05:04.303 : :Глава 02
00:09:33.823 : :Глава 03
00:12:38.507 : :Глава 04
00:13:42.988 : :Глава 05
00:19:01.723 : :Глава 06
00:21:15.774 : :Глава 07
00:24:21.418 : :Глава 08
00:27:27.729 : :Глава 09
00:28:40.844 : :Глава 10
00:32:27.904 : :Глава 11
00:35:11.692 : :Глава 12
00:41:24.773 : :Глава 13
00:45:15.254 : :Глава 14
00:49:46.191 : :Глава 15
00:52:11.795 : :Глава 16
00:55:12.767 : :Глава 17
01:00:26.581 : :Глава 18
01:03:42.193 : :Глава 19
01:06:01.457 : :Глава 20
01:09:18.529 : :Глава 21
01:11:24.488 : :Глава 22
01:15:03.749 : :Глава 23
01:17:12.627 : :Глава 24
01:19:18.503 : :Глава 25
01:23:00.892 : :Глава 26
Скриншоты:
Если надо вернуться на сидирование раздачи пишите в ЛС.
По вопросам изготовления рипов под заказ обращайтесь в ЛС.
[Профиль] [ЛС]
Показать сообщения:    
Ответить на тему

Текущее время: 24-Май 09:43

Часовой пояс: UTC + 3



Вы не можете начинать темы
Вы не можете отвечать на сообщения
Вы не можете редактировать свои сообщения
Вы не можете удалять свои сообщения
Вы не можете голосовать в опросах
Вы не можете прикреплять файлы к сообщениям
Вы не можете скачивать файлы