Вычислитель (2014) WEB-DLRip [H.264]

Ответить на тему
 
Автор Сообщение

MAG3131 ®

Пол: Мужской

Стаж: 52 года

Сообщений: 108

Откуда: Санкт-Петербург

Создавать темы 22-Янв-2022 17:17

[Цитировать]

Вычислитель (2014) WEB-DLRip [H.264] - Производство: Россия / Арт Пикчерс Студия, ВГТРК
Жанр: фантастика
Режиссер: Дмитрий Грачев
Продюсер: Алексей Куренков, Дмитрий Медников, Фёдор Бондарчук
Актеры: Евгений Миронов, Аня Чиповская, Винни Джонс, Никита Панфилов, Кирилл Козаков, Иван Верховых, Владас Багдонас, Ирене Мускара, Линда Нигматулина, Алексей Колубков
Описание:
Десять заключенных, приговоренных к пожизненному изгнанию с планеты XT-59, отправляются в опасный путь через Саргассово Болото. Группа сразу делится на две части: Эрвин и Кристи идут на поиск Счастливых Островов, Юст ведет остальных к Гнилой Мели. Однако долгое время их маршруты практически совпадают. В первый же вечер Эрвин понимает, что его должны убить – в прошлой жизни он занимал слишком высокий пост, и теперь он опасен для тех, кто пришел к власти. Выбрав в попутчицы Кристи, он сразу старается уйти подальше от остальных членов группы, чтобы обезопасить себя. На пути к Счастливым островам герои преодолевают массу препятствий. Цена этому — свобода и счастье.

Возраст: 12+ (зрителям, достигшим 12 лет)
Рейтинг MPAA: этот продукт не был классифицирован
Релиз от: MAG3131
Продолжительность: 01:26:13
Качество видео: WEB-DLRip
Перевод: Не требуется
Субтитры: Отсутствуют
Видео: AVC/H.264, 720x304, ~939 kbps, 24 fps
Аудио: AC3, 2 ch, 192 kbps

MediaInfo

Общее
Уникальный идентификатор : 169874066625150313452400895164364900793 (0x7FCC8E1F8B39ABC40C4FA02F245449B9)
Полное имя : Вычислитель (The Calculator).mkv
Формат : Matroska
Версия формата : Version 4
Размер файла : 697 Мбайт
Продолжительность : 1 ч. 26 м.
Общий поток : 1 131 Кбит/сек
Дата кодирования : UTC 2022-01-15 03:38:53
Программа кодирования : mkvmerge v64.0.0 ('Willows') 64-bit
Библиотека кодирования : libebml v1.4.2 + libmatroska v1.6.4
Attachments : Лог кодирования.log
Видео
Идентификатор : 1
Формат : AVC
Формат/Информация : Advanced Video Codec
Профиль формата : High@L4.1
Настройки формата : CABAC / 12 Ref Frames
Параметр CABAC формата : Да
Параметр RefFrames формата : 12 кадров
Идентификатор кодека : V_MPEG4/ISO/AVC
Продолжительность : 1 ч. 26 м.
Битрейт : 939 Кбит/сек
Ширина : 720 пикселей
Высота : 304 пикселя
Соотношение сторон : 2,35:1
Режим частоты кадров : Постоянный
Частота кадров : 24,000 кадра/сек
Цветовое пространство : YUV
Субдискретизация насыщенности : 4:2:0
Битовая глубина : 8 бит
Тип развёртки : Прогрессивная
Бит/(Пиксели*Кадры) : 0.179
Размер потока : 565 Мбайт (81%)
Заголовок : Вычислитель (The Calculator)
Библиотека кодирования : x264 core 157 r2969 d4099dd
Настройки программы : cabac=1 / ref=12 / deblock=1:-1:-1 / analyse=0x3:0x133 / me=umh / subme=11 / psy=1 / psy_rd=1.00:0.15 / mixed_ref=1 / me_range=64 / chroma_me=1 / trellis=2 / 8x8dct=1 / cqm=0 / deadzone=21,11 / fast_pskip=0 / chroma_qp_offset=-3 / threads=9 / lookahead_threads=2 / sliced_threads=0 / nr=0 / decimate=0 / interlaced=0 / bluray_compat=0 / constrained_intra=0 / bframes=16 / b_pyramid=2 / b_adapt=2 / b_bias=0 / direct=3 / weightb=1 / open_gop=0 / weightp=2 / keyint=240 / keyint_min=24 / scenecut=40 / intra_refresh=0 / rc_lookahead=60 / rc=2pass / mbtree=0 / bitrate=939 / ratetol=1.0 / qcomp=0.60 / qpmin=0 / qpmax=69 / qpstep=4 / cplxblur=20.0 / qblur=0.5 / vbv_maxrate=50000 / vbv_bufsize=62500 / nal_hrd=none / filler=0 / ip_ratio=1.40 / pb_ratio=1.30 / aq=1:1.00
Язык : Russian
Default : Да
Forced : Нет
Аудио
Идентификатор : 2
Формат : AC-3
Формат/Информация : Audio Coding 3
Коммерческое название : Dolby Digital
Идентификатор кодека : A_AC3
Продолжительность : 1 ч. 26 м.
Вид битрейта : Постоянный
Битрейт : 192 Кбит/сек
Каналы : 2 канала
Channel layout : L R
Частота : 48,0 КГц
Частота кадров : 31,250 кадров/сек (1536 SPF)
Метод сжатия : С потерями
Размер потока : 118 Мбайт (17%)
Заголовок : Оригинал (AC-3, Постоянный, 192 Кбит/сек, 2 канала, 48,0 КГц)
Язык : Russian
Service kind : Complete Main
Default : Да
Forced : Нет
Меню
00:00:00.000 : en:00:00:00.000
00:05:21.000 : en:00:05:21.000
00:10:13.000 : en:00:10:13.000
00:14:47.000 : en:00:14:47.000
00:20:25.000 : en:00:20:25.000
00:25:33.000 : en:00:25:33.000
00:30:29.000 : en:00:30:29.000
00:36:15.000 : en:00:36:15.000
00:42:15.000 : en:00:42:15.000
00:46:57.000 : en:00:46:57.000
00:51:57.000 : en:00:51:57.000
00:57:19.000 : en:00:57:19.000
01:03:09.000 : en:01:03:09.000
01:07:40.000 : en:01:07:40.000
01:12:45.000 : en:01:12:45.000
01:17:42.000 : en:01:17:42.000
01:21:13.000 : en:01:21:13.000
Скриншоты:
Если надо вернуться на сидирование раздачи пишите в ЛС.
По вопросам изготовления рипов под заказ обращайтесь в ЛС.
[Профиль] [ЛС]
Показать сообщения:    
Ответить на тему

Текущее время: 24-Май 09:52

Часовой пояс: UTC + 3



Вы не можете начинать темы
Вы не можете отвечать на сообщения
Вы не можете редактировать свои сообщения
Вы не можете удалять свои сообщения
Вы не можете голосовать в опросах
Вы не можете прикреплять файлы к сообщениям
Вы не можете скачивать файлы