Прикосновение медузы / The Medusa Touch (1978) BDRip [H.264]

Ответить на тему
 
Автор Сообщение

MAG3131 ®

Пол: Мужской

Стаж: 52 года

Сообщений: 108

Откуда: Санкт-Петербург

Создавать темы 25-Янв-2022 13:08

[Цитировать]

Прикосновение медузы / The Medusa Touch (1978) BDRip [H.264] - Производство: Великобритания, Франция / Bulldog, Citeca Productions, Coatesgold, ITC Entertainment
Жанр: триллер, детектив, фантастика
Режиссер: Джек Голд
Продюсер: Энн В. Коутс, Джек Голд, Дэнис Холт
Актеры: Ричард Бёртон, Лино Вентура, Ли Ремик, Гарри Эндрюс, Алан Бэдел, Мари-Кристин Барро, Джереми Бретт, Майкл Хордерн, Гордон Джексон, Майкл Бирн
Описание:
Убит писатель Морлар, следствие поручено вести полицейскому инспектору Брунелю. Он пытается обнаружить убийцу, изучая обстоятельства жизни потерпевшего. Постепенно складывается страшная картина, в центре которой находится гений экстрасенсорики, мизантроп и отцеубийца. Не желая покидать этот мир до того, как произойдет финальный акт спланированной им череды катастроф, он цепко держится за жизнь, даже находясь в коме. Инспектору необходимо предотвратить катастрофу и обезвредить маньяка.

Возраст: 16+ (зрителям, достигшим 16 лет)
Рейтинг MPAA: PG (рекомендуется присутствие родителей)
Релиз от: MAG3131
Продолжительность: 01:49:00
Качество видео: BDRip
Перевод: Дублированный
Субтитры: Отсутствуют
Видео: AVC/H.264, 720x408, ~2498 kbps, 24 fps
Аудио: AC3, 2 ch, 192 kbps (Русский - Двухголосый ''R5'' с вставками одноголосого ''Deadman'')

MediaInfo

Общее
Уникальный идентификатор : 147863351716787358606548005196075521494 (0x6F3D7217BFC3F18D740B81C0AC9E55D6)
Полное имя : Прикосновение медузы (The Medusa Touch).mkv
Формат : Matroska
Версия формата : Version 4
Размер файла : 2,05 Гбайт
Продолжительность : 1 ч. 49 м.
Общий поток : 2 691 Кбит/сек
Дата кодирования : UTC 2022-01-25 09:50:22
Программа кодирования : mkvmerge v64.0.0 ('Willows') 64-bit
Библиотека кодирования : libebml v1.4.2 + libmatroska v1.6.4
Attachments : Лог кодирования.log
Видео
Идентификатор : 1
Формат : AVC
Формат/Информация : Advanced Video Codec
Профиль формата : High@L4.1
Настройки формата : CABAC / 12 Ref Frames
Параметр CABAC формата : Да
Параметр RefFrames формата : 12 кадров
Идентификатор кодека : V_MPEG4/ISO/AVC
Продолжительность : 1 ч. 49 м.
Битрейт : 2 498 Кбит/сек
Ширина : 720 пикселей
Высота : 408 пикселей
Соотношение сторон : 16:9
Режим частоты кадров : Постоянный
Частота кадров : 24,000 кадра/сек
Цветовое пространство : YUV
Субдискретизация насыщенности : 4:2:0
Битовая глубина : 8 бит
Тип развёртки : Прогрессивная
Бит/(Пиксели*Кадры) : 0.354
Размер потока : 1,86 Гбайт (91%)
Заголовок : Прикосновение медузы (The Medusa Touch)
Библиотека кодирования : x264 core 157 r2969 d4099dd
Настройки программы : cabac=1 / ref=12 / deblock=1:-1:-1 / analyse=0x3:0x133 / me=umh / subme=11 / psy=1 / psy_rd=1.00:0.15 / mixed_ref=1 / me_range=64 / chroma_me=1 / trellis=2 / 8x8dct=1 / cqm=0 / deadzone=21,11 / fast_pskip=0 / chroma_qp_offset=-3 / threads=12 / lookahead_threads=3 / sliced_threads=0 / nr=0 / decimate=0 / interlaced=0 / bluray_compat=0 / constrained_intra=0 / bframes=16 / b_pyramid=2 / b_adapt=2 / b_bias=0 / direct=3 / weightb=1 / open_gop=0 / weightp=2 / keyint=240 / keyint_min=24 / scenecut=40 / intra_refresh=0 / rc_lookahead=60 / rc=2pass / mbtree=0 / bitrate=2498 / ratetol=1.0 / qcomp=0.60 / qpmin=0 / qpmax=69 / qpstep=4 / cplxblur=20.0 / qblur=0.5 / vbv_maxrate=50000 / vbv_bufsize=62500 / nal_hrd=none / filler=0 / ip_ratio=1.40 / pb_ratio=1.30 / aq=1:1.00
Язык : English
Default : Да
Forced : Нет
Аудио
Идентификатор : 2
Формат : AC-3
Формат/Информация : Audio Coding 3
Коммерческое название : Dolby Digital
Идентификатор кодека : A_AC3
Продолжительность : 1 ч. 49 м.
Вид битрейта : Постоянный
Битрейт : 192 Кбит/сек
Каналы : 2 канала
Channel layout : L R
Частота : 48,0 КГц
Частота кадров : 31,250 кадров/сек (1536 SPF)
Метод сжатия : С потерями
Размер потока : 150 Мбайт (7%)
Заголовок : Двухголосый ''R5'' с вставками одноголосого ''Deadman'' (AC-3, Постоянный, 192 Кбит/сек, 2 канала, 48,0 КГц)
Язык : Russian
Service kind : Complete Main
Default : Да
Forced : Нет
Меню
00:00:00.000 : :Глава 01
00:08:56.000 : :Глава 02
00:20:26.833 : :Глава 03
00:25:14.000 : :Глава 04
00:33:51.000 : :Глава 05
00:44:52.916 : :Глава 06
00:52:30.000 : :Глава 07
01:05:38.000 : :Глава 08
01:13:08.500 : :Глава 09
01:20:57.833 : :Глава 10
01:29:18.000 : :Глава 11
01:37:47.833 : :Глава 12
Скриншоты:
Если надо вернуться на сидирование раздачи пишите в ЛС.
По вопросам изготовления рипов под заказ обращайтесь в ЛС.
[Профиль] [ЛС]
Показать сообщения:    
Ответить на тему

Текущее время: 24-Май 08:21

Часовой пояс: UTC + 3



Вы не можете начинать темы
Вы не можете отвечать на сообщения
Вы не можете редактировать свои сообщения
Вы не можете удалять свои сообщения
Вы не можете голосовать в опросах
Вы не можете прикреплять файлы к сообщениям
Вы не можете скачивать файлы