Привидение / Ghost (1990) BDRip [H.264]

Ответить на тему
 
Автор Сообщение

MAG3131 ®

Пол: Мужской

Стаж: 52 года

Сообщений: 108

Откуда: Санкт-Петербург

Создавать темы 27-Янв-2022 23:00

[Цитировать]

Привидение / Ghost (1990) BDRip [H.264] - Производство: США / Howard W. Koch Productions, Paramount Pictures
Жанр: мелодрама, фэнтези, триллер, драма
Режиссер: Джерри Цукер
Продюсер: Стивен-Чарльз Джаффе, Ховард В. Коч, Брюс Джоэл Рубин
Актеры: Патрик Суэйзи, Деми Мур, Вупи Голдберг, Тони Голдуин, Рик Авилес, Стэнли Лоуренс, Кристофер Дж. Кин, Сьюзен Бреслау, Мартина Дэйнан, Рик Клебер
Описание:
Влюблённая пара Сэм и Молли возвращается домой после приятного вечера, когда на них нападает грабитель. Защищаясь, Сэм погибает и становится призраком. Он узнаёт, что его смерть не была случайной, а над его возлюбленной нависла смертельная опасность. Чтобы предупредить Молли, Сэм начинает обход практикующих медиумов и, о чудо! - находит женщину, которая действительно может его слышать. Только вот сама она не горит желанием помогать назойливому привидению.

Возраст: 12+ (зрителям, достигшим 12 лет)
Рейтинг MPAA: PG-13 (детям до 13 лет просмотр нежелателен)
Релиз от: MAG3131
Продолжительность: 02:06:40
Качество видео: BDRip
Перевод: Дублированный
Субтитры: Отсутствуют
Видео: AVC/H.264, 720x408, ~1350 kbps, 23,976 fps
Аудио: AC3, 2 ch, 192 kbps (Русский - Дублированный ''СТС'' с вставками многоголосого '' Blu-ray EUR'')

MediaInfo

Общее
Уникальный идентификатор : 2256128735073099602867269398296064585 (0x1B283BC19944107A376DAC9F408F249)
Полное имя : Привидение (Ghost).mkv
Формат : Matroska
Версия формата : Version 4
Размер файла : 1,37 Гбайт
Продолжительность : 2 ч. 6 м.
Общий поток : 1 543 Кбит/сек
Дата кодирования : UTC 2021-11-23 04:12:14
Программа кодирования : mkvmerge v63.0.0 ('Everything') 64-bit
Библиотека кодирования : libebml v1.4.2 + libmatroska v1.6.4
Attachments : Лог кодирования.log
Видео
Идентификатор : 1
Формат : AVC
Формат/Информация : Advanced Video Codec
Профиль формата : High@L4.1
Настройки формата : CABAC / 12 Ref Frames
Параметр CABAC формата : Да
Параметр RefFrames формата : 12 кадров
Идентификатор кодека : V_MPEG4/ISO/AVC
Продолжительность : 2 ч. 6 м.
Битрейт : 1 350 Кбит/сек
Ширина : 720 пикселей
Высота : 408 пикселей
Соотношение сторон : 16:9
Режим частоты кадров : Постоянный
Частота кадров : 23,976 (24000/1001) кадра/сек
Цветовое пространство : YUV
Субдискретизация насыщенности : 4:2:0
Битовая глубина : 8 бит
Тип развёртки : Прогрессивная
Бит/(Пиксели*Кадры) : 0.192
Размер потока : 1,17 Гбайт (86%)
Заголовок : Привидение (Ghost)
Библиотека кодирования : x264 core 157 r2969 d4099dd
Настройки программы : cabac=1 / ref=12 / deblock=1:-1:-1 / analyse=0x3:0x133 / me=umh / subme=11 / psy=1 / psy_rd=1.00:0.15 / mixed_ref=1 / me_range=64 / chroma_me=1 / trellis=2 / 8x8dct=1 / cqm=0 / deadzone=21,11 / fast_pskip=0 / chroma_qp_offset=-3 / threads=12 / lookahead_threads=3 / sliced_threads=0 / nr=0 / decimate=0 / interlaced=0 / bluray_compat=0 / constrained_intra=0 / bframes=16 / b_pyramid=2 / b_adapt=2 / b_bias=0 / direct=3 / weightb=1 / open_gop=0 / weightp=2 / keyint=240 / keyint_min=23 / scenecut=40 / intra_refresh=0 / rc_lookahead=60 / rc=2pass / mbtree=0 / bitrate=1350 / ratetol=1.0 / qcomp=0.60 / qpmin=0 / qpmax=69 / qpstep=4 / cplxblur=20.0 / qblur=0.5 / vbv_maxrate=50000 / vbv_bufsize=62500 / nal_hrd=none / filler=0 / ip_ratio=1.40 / pb_ratio=1.30 / aq=1:1.00
Язык : English
Default : Да
Forced : Нет
Аудио
Идентификатор : 2
Формат : AC-3
Формат/Информация : Audio Coding 3
Коммерческое название : Dolby Digital
Идентификатор кодека : A_AC3
Продолжительность : 2 ч. 6 м.
Вид битрейта : Постоянный
Битрейт : 192 Кбит/сек
Каналы : 2 канала
Channel layout : L R
Частота : 48,0 КГц
Частота кадров : 31,250 кадров/сек (1536 SPF)
Метод сжатия : С потерями
Размер потока : 174 Мбайт (12%)
Заголовок : Дублированный ''СТС'' с вставками многоголосого '' Blu-ray EUR'' (AC-3, Постоянный, 192 Кбит/сек, 2 канала, 48,0 КГц)
Язык : Russian
Service kind : Complete Main
Default : Да
Forced : Нет
Меню
00:00:00.000 : :Глава 01
00:11:08.251 : :Глава 02
00:17:18.037 : :Глава 03
00:32:06.591 : :Глава 04
00:37:42.760 : :Глава 05
00:47:04.530 : :Глава 06
01:12:23.756 : :Глава 07
01:18:02.511 : :Глава 08
01:22:16.807 : :Глава 09
01:34:30.957 : :Глава 10
01:38:54.095 : :Глава 11
01:44:26.677 : :Глава 12
01:49:09.501 : :Глава 13
01:52:13.936 : :Глава 14
01:57:40.387 : :Глава 15
02:02:15.328 : :Глава 16
Скриншоты:
Если надо вернуться на сидирование раздачи пишите в ЛС.
По вопросам изготовления рипов под заказ обращайтесь в ЛС.
[Профиль] [ЛС]
Показать сообщения:    
Ответить на тему

Текущее время: 24-Май 09:37

Часовой пояс: UTC + 3



Вы не можете начинать темы
Вы не можете отвечать на сообщения
Вы не можете редактировать свои сообщения
Вы не можете удалять свои сообщения
Вы не можете голосовать в опросах
Вы не можете прикреплять файлы к сообщениям
Вы не можете скачивать файлы