День Д (2008) BDRip [H.264]

Ответить на тему
 
Автор Сообщение

MAG3131 ®

Пол: Мужской

Стаж: 52 года

Сообщений: 108

Откуда: Санкт-Петербург

Создавать темы 09-Фев-2022 16:33

[Цитировать]

День Д (2008) BDRip [H.264] - Производство: Россия / Централ Партнершип, ВВП Альянс / Кинокомпания Альянс
Жанр: боевик, приключения
Режиссер: Михаил Пореченков, Екатерина Побединская
Продюсер: Сергей Рожков, Михаил Пореченков
Актеры: Михаил Пореченков, Александра Урсуляк, Варвара Пореченкова, Михаил Трухин, Боб Шрайбер, Виктор Вержбицкий, Сергей Сосновский, Никита Тарасов, Михаил Водзуми, Максим Дрозд
Описание:
Майор ВДВ в отставке — Иван — живет в глухом лесу вместе с маленькой дочерью Женей. Однажды на его дом совершается налет, во время которого Женю похищают. От Ивана в обмен на жизнь дочери требуют убить эстонского президента.
Герой соглашается, но по дороге в Таллинн сбегает, встречает красавицу-стюардессу Алию. Вместе они захватывают гидроплан и отправляются на остров рядом с Владивостоком, где злодеи держат Женю.

Возраст: 16+ (зрителям, достигшим 16 лет)
Рейтинг MPAA: этот продукт не был классифицирован
Релиз от: MAG3131
Продолжительность: 01:24:27
Качество видео: BDRip
Перевод: Не требуется
Субтитры: Отсутствуют
Видео: AVC/H.264, 720x312, ~3281 kbps, 23,976 fps
Аудио: AC3, 2 ch, 192 kbps

MediaInfo

Общее
Уникальный идентификатор : 275033972657230594520636401882705594213 (0xCEE99DCA30CCAAF598426FE1996E8765)
Полное имя : День Д (2008 год) (D-Day) (2008 Year).mkv
Формат : Matroska
Версия формата : Version 4
Размер файла : 2,05 Гбайт
Продолжительность : 1 ч. 24 м.
Общий поток : 3 472 Кбит/сек
Дата кодирования : UTC 2022-02-07 15:25:55
Программа кодирования : mkvmerge v65.0.0 ('Too Much') 64-bit
Библиотека кодирования : libebml v1.4.2 + libmatroska v1.6.4
Attachments : Лог кодирования.log
Видео
Идентификатор : 1
Формат : AVC
Формат/Информация : Advanced Video Codec
Профиль формата : High@L4.1
Настройки формата : CABAC / 12 Ref Frames
Параметр CABAC формата : Да
Параметр RefFrames формата : 12 кадров
Идентификатор кодека : V_MPEG4/ISO/AVC
Продолжительность : 1 ч. 24 м.
Битрейт : 3 281 Кбит/сек
Ширина : 720 пикселей
Высота : 312 пикселей
Соотношение сторон : 2,35:1
Режим частоты кадров : Постоянный
Частота кадров : 23,976 (24000/1001) кадра/сек
Цветовое пространство : YUV
Субдискретизация насыщенности : 4:2:0
Битовая глубина : 8 бит
Тип развёртки : Прогрессивная
Бит/(Пиксели*Кадры) : 0.609
Размер потока : 1,89 Гбайт (92%)
Заголовок : День Д (2008 год) (D-Day) (2008 Year)
Библиотека кодирования : x264 core 164 r3085 0bb85e8
Настройки программы : cabac=1 / ref=12 / deblock=1:-1:-1 / analyse=0x3:0x133 / me=umh / subme=11 / psy=1 / psy_rd=1.00:0.15 / mixed_ref=1 / me_range=64 / chroma_me=1 / trellis=2 / 8x8dct=1 / cqm=0 / deadzone=21,11 / fast_pskip=0 / chroma_qp_offset=-3 / threads=10 / lookahead_threads=2 / sliced_threads=0 / nr=0 / decimate=0 / interlaced=0 / bluray_compat=0 / constrained_intra=0 / bframes=16 / b_pyramid=2 / b_adapt=2 / b_bias=0 / direct=3 / weightb=1 / open_gop=0 / weightp=2 / keyint=240 / keyint_min=23 / scenecut=40 / intra_refresh=0 / rc_lookahead=60 / rc=2pass / mbtree=0 / bitrate=3281 / ratetol=1.0 / qcomp=0.60 / qpmin=0 / qpmax=69 / qpstep=4 / cplxblur=20.0 / qblur=0.5 / vbv_maxrate=50000 / vbv_bufsize=62500 / nal_hrd=none / filler=0 / ip_ratio=1.40 / pb_ratio=1.30 / aq=1:1.00
Язык : Russian
Default : Да
Forced : Нет
Аудио
Идентификатор : 2
Формат : AC-3
Формат/Информация : Audio Coding 3
Коммерческое название : Dolby Digital
Идентификатор кодека : A_AC3
Продолжительность : 1 ч. 24 м.
Вид битрейта : Постоянный
Битрейт : 192 Кбит/сек
Каналы : 2 канала
Channel layout : L R
Частота : 48,0 КГц
Частота кадров : 31,250 кадров/сек (1536 SPF)
Метод сжатия : С потерями
Размер потока : 116 Мбайт (6%)
Заголовок : Оригинал (AC-3, Постоянный, 192 Кбит/сек, 2 канала, 48,0 КГц)
Язык : Russian
Service kind : Complete Main
Default : Да
Forced : Нет
Меню
00:00:00.000 : :Глава 01
00:05:50.350 : :Глава 02
00:11:09.836 : :Глава 03
00:18:53.215 : :Глава 04
00:26:14.573 : :Глава 05
00:32:43.378 : :Глава 06
00:40:26.549 : :Глава 07
00:47:27.595 : :Глава 08
00:54:12.499 : :Глава 09
01:03:08.243 : :Глава 10
01:10:14.043 : :Глава 11
01:16:26.874 : :Глава 12
Скриншоты:
Если надо вернуться на сидирование раздачи пишите в ЛС.
По вопросам изготовления рипов под заказ обращайтесь в ЛС.
[Профиль] [ЛС]
Показать сообщения:    
Ответить на тему

Текущее время: 24-Май 09:26

Часовой пояс: UTC + 3



Вы не можете начинать темы
Вы не можете отвечать на сообщения
Вы не можете редактировать свои сообщения
Вы не можете удалять свои сообщения
Вы не можете голосовать в опросах
Вы не можете прикреплять файлы к сообщениям
Вы не можете скачивать файлы