Любовь-морковь (2006) DVDRip [H.264]

Ответить на тему
 
Автор Сообщение

MAG3131 ®

Пол: Мужской

Стаж: 52 года

Сообщений: 108

Откуда: Санкт-Петербург

Создавать темы 09-Фев-2022 23:21

[Цитировать]

Любовь-морковь (2006) DVDRip [H.264] - Производство: Россия / Реал-Дакота
Жанр: комедия
Режиссер: Александр Стриженов
Продюсер: Ренат Давлетьяров, Александр Котелевский, Александр Олейников
Актеры: Гоша Куценко, Кристина Орбакайте, Евгений Стычкин, Андрей Краско, Михаил Козаков, Александр Стриженов, Екатерина Стриженова, Дарья Дроздовская, Ольга Орлова, Виталий Хаев
Описание:
На свадьбе супруги Голубевы клялись друг другу в вечной любви. Со временем страсть ушла, а ее место заняли карьера, быт, друзья и личные увлечения. Они все больше ругаются по пустякам, все меньше проводят времени вместе…
Перед супругами замаячила перспектива развода. Последний шанс спасти семью - консультация у семейного психолога доктора Когана. Но доктор Коган лечит семейные отношения не вполне традиционным методом. Утром они просыпаются у себя дома, но теперь они поменялись местами. Им предстоит научиться принимать тела и желания друг друга как свои собственные…

Возраст: 12+ (зрителям, достигшим 12 лет)
Рейтинг MPAA: этот продукт не был классифицирован
Релиз от: MAG3131
Продолжительность: 01:44:20
Качество видео: DVDRip
Перевод: Не требуется
Субтитры: Отсутствуют
Видео: AVC/H.264, 700x382, ~1680 kbps, 25 fps
Аудио: AC3, 2 ch, 192 kbps

MediaInfo

Общее
Уникальный идентификатор : 130825031793916908297853972631726056858 (0x626BFC101AB1825CF562B37AD073E59A)
Полное имя : Любовь-Морковь - 01 (Lovey-Dovey - 01).mkv
Формат : Matroska
Версия формата : Version 4
Размер файла : 1,36 Гбайт
Продолжительность : 1 ч. 44 м.
Общий поток : 1 873 Кбит/сек
Дата кодирования : UTC 2022-01-27 20:16:38
Программа кодирования : mkvmerge v64.0.0 ('Willows') 64-bit
Библиотека кодирования : libebml v1.4.2 + libmatroska v1.6.4
Attachments : Лог кодирования.log
Видео
Идентификатор : 1
Формат : AVC
Формат/Информация : Advanced Video Codec
Профиль формата : High@L4.1
Настройки формата : CABAC / 12 Ref Frames
Параметр CABAC формата : Да
Параметр RefFrames формата : 12 кадров
Идентификатор кодека : V_MPEG4/ISO/AVC
Продолжительность : 1 ч. 44 м.
Битрейт : 1 680 Кбит/сек
Ширина : 700 пикселей
Высота : 382 пикселя
Соотношение сторон : 1,85:1
Режим частоты кадров : Постоянный
Частота кадров : 25,000 кадров/сек
Цветовое пространство : YUV
Субдискретизация насыщенности : 4:2:0
Битовая глубина : 8 бит
Тип развёртки : Прогрессивная
Бит/(Пиксели*Кадры) : 0.251
Размер потока : 1,20 Гбайт (88%)
Заголовок : Любовь-Морковь - 01 (Lovey-Dovey - 01)
Библиотека кодирования : x264 core 157 r2969 d4099dd
Настройки программы : cabac=1 / ref=12 / deblock=1:-1:-1 / analyse=0x3:0x133 / me=umh / subme=11 / psy=1 / psy_rd=1.00:0.15 / mixed_ref=1 / me_range=64 / chroma_me=1 / trellis=2 / 8x8dct=1 / cqm=0 / deadzone=21,11 / fast_pskip=0 / chroma_qp_offset=-3 / threads=12 / lookahead_threads=2 / sliced_threads=0 / nr=0 / decimate=0 / interlaced=0 / bluray_compat=0 / constrained_intra=0 / bframes=16 / b_pyramid=2 / b_adapt=2 / b_bias=0 / direct=3 / weightb=1 / open_gop=0 / weightp=2 / keyint=250 / keyint_min=25 / scenecut=40 / intra_refresh=0 / rc_lookahead=60 / rc=2pass / mbtree=0 / bitrate=1680 / ratetol=1.0 / qcomp=0.60 / qpmin=0 / qpmax=69 / qpstep=4 / cplxblur=20.0 / qblur=0.5 / vbv_maxrate=50000 / vbv_bufsize=62500 / nal_hrd=none / filler=0 / ip_ratio=1.40 / pb_ratio=1.30 / aq=1:1.00
Язык : Russian
Default : Да
Forced : Нет
Аудио
Идентификатор : 2
Формат : AC-3
Формат/Информация : Audio Coding 3
Коммерческое название : Dolby Digital
Идентификатор кодека : A_AC3
Продолжительность : 1 ч. 44 м.
Вид битрейта : Постоянный
Битрейт : 192 Кбит/сек
Каналы : 2 канала
Channel layout : L R
Частота : 48,0 КГц
Частота кадров : 31,250 кадров/сек (1536 SPF)
Метод сжатия : С потерями
Размер потока : 143 Мбайт (10%)
Заголовок : Оригинал (AC-3, Постоянный, 192 Кбит/сек, 2 канала, 48,0 КГц)
Язык : Russian
Service kind : Complete Main
Default : Да
Forced : Нет
Меню
00:00:00.000 : :Chapter 01
00:00:01.800 : :Chapter 02
00:05:51.360 : :Chapter 03
00:14:51.720 : :Chapter 04
00:22:06.840 : :Chapter 05
00:32:26.920 : :Chapter 06
00:40:39.440 : :Chapter 07
00:49:18.600 : :Chapter 08
00:58:39.200 : :Chapter 09
01:09:16.960 : :Chapter 10
01:23:11.320 : :Chapter 11
01:34:58.280 : :Chapter 12
01:41:21.480 : :Chapter 13
01:44:18.400 : :Chapter 14
01:44:19.000 : :Chapter 15
Скриншоты:
Если надо вернуться на сидирование раздачи пишите в ЛС.
По вопросам изготовления рипов под заказ обращайтесь в ЛС.
[Профиль] [ЛС]
Показать сообщения:    
Ответить на тему

Текущее время: 24-Май 08:56

Часовой пояс: UTC + 3



Вы не можете начинать темы
Вы не можете отвечать на сообщения
Вы не можете редактировать свои сообщения
Вы не можете удалять свои сообщения
Вы не можете голосовать в опросах
Вы не можете прикреплять файлы к сообщениям
Вы не можете скачивать файлы