9 рота (2005) DVDRip [H.264]

Ответить на тему
 
Автор Сообщение

MAG3131 ®

Пол: Мужской

Стаж: 52 года

Сообщений: 108

Откуда: Санкт-Петербург

Создавать темы 13-Фев-2022 19:53

[Цитировать]

9 рота (2005) DVDRip [H.264] - Производство: Россия, Украина, Финляндия / Арт Пикчерс Студия / Art Pictures Studio, Канал 1+1, Finnish Film Foundation, MRP Matila Röhr Productions Oy, Слово, Телеканал СТС, Yleisradio (YLE)
Жанр: боевик, драма, военный, история
Режиссер: Фёдор Бондарчук
Продюсер: Елена Яцура, Сергей Мелькумов, Александр Роднянский
Актеры: Фёдор Бондарчук, Алексей Чадов, Иван Кокорин, Артём Михалков, Константин Крюков, Артур Смольянинов, Михаил Пореченков, Ирина Рахманова, Алексей Серебряков, Михаил Ефремов
Описание:
СССР, 1988-1989 годы, за несколько месяцев до полного вывода советских войск из Афганистана. Семеро призывников после нескольких месяцев адской подготовки в учебке под командованием беспощадного старшины попадают в горнило афганской кампании.
Группа десантников, бойцами которой стали наши герои, получает задание командования - занять высоту и держать её до прохождения колонны.

Возраст: 16+ (зрителям, достигшим 16 лет)
Рейтинг MPAA: R (лицам до 17 лет обязательно присутствие взрослого)
Релиз от: MAG3131
Продолжительность: 02:13:33
Качество видео: DVDRip
Перевод: Не требуется
Субтитры: Отсутствуют
Видео: AVC/H.264, 700x286, ~2003 kbps, 25 fps
Аудио: AC3, 2 ch, 192 kbps

MediaInfo

Общее
Уникальный идентификатор : 178847215535334367788870352293728575337 (0x868CB8857ED13FEEC2F698B8CE535F69)
Полное имя : 9 рота (9th Company).mkv
Формат : Matroska
Версия формата : Version 4
Размер файла : 2,05 Гбайт
Продолжительность : 2 ч. 13 м.
Общий поток : 2 196 Кбит/сек
Дата кодирования : UTC 2022-02-13 12:43:50
Программа кодирования : mkvmerge v65.0.0 ('Too Much') 64-bit
Библиотека кодирования : libebml v1.4.2 + libmatroska v1.6.4
Attachments : Лог кодирования.log
Видео
Идентификатор : 1
Формат : AVC
Формат/Информация : Advanced Video Codec
Профиль формата : High@L4.1
Настройки формата : CABAC / 12 Ref Frames
Параметр CABAC формата : Да
Параметр RefFrames формата : 12 кадров
Идентификатор кодека : V_MPEG4/ISO/AVC
Продолжительность : 2 ч. 13 м.
Битрейт : 2 003 Кбит/сек
Ширина : 700 пикселей
Высота : 286 пикселей
Соотношение сторон : 2,40:1
Режим частоты кадров : Постоянный
Частота кадров : 25,000 кадров/сек
Цветовое пространство : YUV
Субдискретизация насыщенности : 4:2:0
Битовая глубина : 8 бит
Тип развёртки : Прогрессивная
Бит/(Пиксели*Кадры) : 0.400
Размер потока : 1,83 Гбайт (89%)
Заголовок : 9 рота (9th Company)
Библиотека кодирования : x264 core 164 r3086 5585eaf
Настройки программы : cabac=1 / ref=12 / deblock=1:-1:-1 / analyse=0x3:0x133 / me=umh / subme=11 / psy=1 / psy_rd=1.00:0.15 / mixed_ref=1 / me_range=64 / chroma_me=1 / trellis=2 / 8x8dct=1 / cqm=0 / deadzone=21,11 / fast_pskip=0 / chroma_qp_offset=-3 / threads=9 / lookahead_threads=2 / sliced_threads=0 / nr=0 / decimate=0 / interlaced=0 / bluray_compat=0 / constrained_intra=0 / bframes=16 / b_pyramid=2 / b_adapt=2 / b_bias=0 / direct=3 / weightb=1 / open_gop=0 / weightp=2 / keyint=250 / keyint_min=25 / scenecut=40 / intra_refresh=0 / rc_lookahead=60 / rc=2pass / mbtree=0 / bitrate=2003 / ratetol=1.0 / qcomp=0.60 / qpmin=0 / qpmax=69 / qpstep=4 / cplxblur=20.0 / qblur=0.5 / vbv_maxrate=50000 / vbv_bufsize=62500 / nal_hrd=none / filler=0 / ip_ratio=1.40 / pb_ratio=1.30 / aq=1:1.00
Язык : Russian
Default : Да
Forced : Нет
Аудио
Идентификатор : 2
Формат : AC-3
Формат/Информация : Audio Coding 3
Коммерческое название : Dolby Digital
Идентификатор кодека : A_AC3
Продолжительность : 2 ч. 13 м.
Вид битрейта : Постоянный
Битрейт : 192 Кбит/сек
Каналы : 2 канала
Channel layout : L R
Частота : 48,0 КГц
Частота кадров : 31,250 кадров/сек (1536 SPF)
Метод сжатия : С потерями
Размер потока : 183 Мбайт (9%)
Заголовок : Оригинал (AC-3, Постоянный, 192 Кбит/сек, 2 канала, 48,0 КГц)
Язык : Russian
Service kind : Complete Main
Default : Да
Forced : Нет
Меню
00:00:00.000 : :Chapter 01
00:07:43.280 : :Chapter 02
00:25:22.320 : :Chapter 03
00:35:58.240 : :Chapter 04
00:48:05.360 : :Chapter 05
00:56:37.600 : :Chapter 06
01:02:46.560 : :Chapter 07
01:08:43.840 : :Chapter 08
01:16:33.040 : :Chapter 09
01:19:47.240 : :Chapter 10
01:35:08.680 : :Chapter 11
01:39:46.240 : :Chapter 12
01:47:06.000 : :Chapter 13
01:51:03.840 : :Chapter 14
02:05:31.760 : :Chapter 15
02:09:31.080 : :Chapter 16
Скриншоты:
Если надо вернуться на сидирование раздачи пишите в ЛС.
По вопросам изготовления рипов под заказ обращайтесь в ЛС.
[Профиль] [ЛС]
Показать сообщения:    
Ответить на тему

Текущее время: 24-Май 08:28

Часовой пояс: UTC + 3



Вы не можете начинать темы
Вы не можете отвечать на сообщения
Вы не можете редактировать свои сообщения
Вы не можете удалять свои сообщения
Вы не можете голосовать в опросах
Вы не можете прикреплять файлы к сообщениям
Вы не можете скачивать файлы