Королева варваров / Barbarian Queen (1985) DVDRip [H.264]

Ответить на тему
 
Автор Сообщение

MAG3131 ®

Пол: Мужской

Стаж: 52 года

Сообщений: 108

Откуда: Санкт-Петербург

Создавать темы 11-Сен-2020 20:17

[Цитировать]

Королева варваров / Barbarian Queen (1985) DVDRip [H.264] - Производство: США, Аргентина / Aries Cinematográfica Argentina, Rodeo Productions
Жанр: фэнтези, приключения
Режиссер: Эктор Оливера
Продюсер: Фрэнк К. Исаак, Алехандро Сесса, Роджер Корман
Актеры: Лана Кларксон, Кэтт Ши, Фрэнк Загарино, Доун Данлэп, Сусана Траверсо, Виктор Бо, Арман Капо, Андреа Барбьери, Тони Миддлтон, Андреа Скривен
Описание:
В день свадьбы гордого и неустрашимого принца Аргана и прекрасной Королевы Варваров Аматеи на ее страну напали кровожадные воины лорда Арракура. Безжалостные захватчики уничтожали все на своем пути, а женщин и мужчин угоняли в рабство. Аметея и Арган мужественно сражались плечом к плечу, но силы оказались слишком неравными.
Принц Арган был захвачен в плен, и спастись удалось лишь Аметее и трем ее подругам. Вооруженные мечами и неугасимой жаждой мщения, они отправляются в полный опасностей и приключений путь, чтобы жестоко покарать коварного лорда Арракура.

Возраст: 16+ (зрителям, достигшим 16 лет)
Рейтинг MPAA: NC-17 (лицам до 17 лет просмотр запрещен)
Релиз от: MAG3131
Продолжительность: 01:11:46
Качество видео: DVDRip
Перевод: Двухголосый
Субтитры: Отсутствуют
Видео: AVC/H.264, 712x304, ~2532 kbps, 23,976 fps
Аудио: AC3, 2 ch, 192 kbps (Русский - Двухголосый ''Ракурс / Екатеринбург Арт'')

MediaInfo

Общее
Уникальный идентификатор : 221624801158473191236538268209567271532 (0xA6BB62542E48CFD18B53D01D03B48A6C)
Полное имя : Королева варваров - 01 (Barbarian Queen - 01).mkv
Формат : Matroska
Версия формата : Version 2
Размер файла : 1,37 Гбайт
Продолжительность : 1 ч. 11 м.
Общий поток : 2 726 Кбит/сек
Дата кодирования : UTC 2015-05-12 04:24:52
Программа кодирования : mkvmerge v3.4.0 ('Rapunzel') сборка от May 15 2010 09:38:20
Библиотека кодирования : libebml v0.8.0 + libmatroska v0.9.0
Attachments : Лог кодирования.log
Видео
Идентификатор : 1
Формат : AVC
Формат/Информация : Advanced Video Codec
Профиль формата : High@L4.1
Настройки формата : CABAC / 11 Ref Frames
Параметр CABAC формата : Да
Параметр RefFrames формата : 11 кадров
Идентификатор кодека : V_MPEG4/ISO/AVC
Продолжительность : 1 ч. 11 м.
Битрейт : 2 532 Кбит/сек
Ширина : 712 пикселей
Высота : 304 пикселя
Соотношение сторон : 2,35:1
Режим частоты кадров : Постоянный
Частота кадров : 23,976 (24000/1001) кадра/сек
Цветовое пространство : YUV
Субдискретизация насыщенности : 4:2:0
Битовая глубина : 8 бит
Тип развёртки : Прогрессивная
Бит/(Пиксели*Кадры) : 0.488
Размер потока : 1,24 Гбайт (91%)
Заголовок : Королева варваров - 01 (Barbarian Queen - 01)
Библиотека кодирования : x264 core 146 r2538 121396c
Настройки программы : cabac=1 / ref=11 / deblock=1:-1:-1 / analyse=0x3:0x133 / me=umh / subme=11 / psy=1 / psy_rd=1.00:0.15 / mixed_ref=1 / me_range=64 / chroma_me=1 / trellis=2 / 8x8dct=1 / cqm=0 / deadzone=21,11 / fast_pskip=0 / chroma_qp_offset=-3 / threads=3 / lookahead_threads=1 / sliced_threads=0 / nr=0 / decimate=0 / interlaced=0 / bluray_compat=0 / constrained_intra=0 / bframes=16 / b_pyramid=2 / b_adapt=2 / b_bias=0 / direct=3 / weightb=1 / open_gop=0 / weightp=2 / keyint=240 / keyint_min=23 / scenecut=40 / intra_refresh=0 / rc_lookahead=60 / rc=2pass / mbtree=0 / bitrate=2532 / ratetol=1.0 / qcomp=0.60 / qpmin=0 / qpmax=69 / qpstep=4 / cplxblur=20.0 / qblur=0.5 / vbv_maxrate=50000 / vbv_bufsize=62500 / nal_hrd=none / filler=0 / ip_ratio=1.40 / pb_ratio=1.30 / aq=1:1.00
Язык : English
Default : Да
Forced : Нет
Аудио
Идентификатор : 2
Формат : AC-3
Формат/Информация : Audio Coding 3
Коммерческое название : Dolby Digital
Идентификатор кодека : A_AC3
Продолжительность : 1 ч. 11 м.
Вид битрейта : Постоянный
Битрейт : 192 Кбит/сек
Каналы : 2 канала
Channel layout : L R
Частота : 48,0 КГц
Частота кадров : 31,250 кадров/сек (1536 SPF)
Метод сжатия : С потерями
Размер потока : 98,6 Мбайт (7%)
Заголовок : Двухголосый ''Ракурс / Екатеринбург Арт'' (AC-3, Постоянный, 192 Кбит/сек, 2 канала, 48,0 КГц)
Язык : Russian
Service kind : Complete Main
Default : Да
Forced : Нет
Меню
00:00:00.000 : en:Chapter 01
00:09:52.567 : en:Chapter 02
00:17:41.101 : en:Chapter 03
00:23:44.002 : en:Chapter 04
00:30:58.402 : en:Chapter 05
00:35:56.836 : en:Chapter 06
00:44:41.136 : en:Chapter 07
00:53:39.004 : en:Chapter 08
01:01:47.037 : en:Chapter 09
01:09:33.938 : en:Chapter 10
01:11:41.071 : en:Chapter 11
Скриншоты:
Если надо вернуться на сидирование раздачи пишите в ЛС.
По вопросам изготовления рипов под заказ обращайтесь в ЛС.
[Профиль] [ЛС]
Показать сообщения:    
Ответить на тему

Текущее время: 24-Май 08:37

Часовой пояс: UTC + 3



Вы не можете начинать темы
Вы не можете отвечать на сообщения
Вы не можете редактировать свои сообщения
Вы не можете удалять свои сообщения
Вы не можете голосовать в опросах
Вы не можете прикреплять файлы к сообщениям
Вы не можете скачивать файлы