Любовь-морковь 2 (2008) BDRip [H.264]

Ответить на тему
 
Автор Сообщение

MAG3131 ®

Пол: Мужской

Стаж: 52 года

Сообщений: 108

Откуда: Санкт-Петербург

Создавать темы 13-Фев-2022 20:31

[Цитировать]

Любовь-морковь 2 (2008) BDRip [H.264] - Производство: Россия / Интерфест, Реал-Дакота
Жанр: мелодрама, комедия
Режиссер: Максим Пежемский
Продюсер: Ренат Давлетьяров, Александр Котелевский, Александр Олейников
Актеры: Гоша Куценко, Кристина Орбакайте, Денис Парамонов, Алина Булынко, Лидия Вележева, Кирилл Плетнёв, Ольга Орлова, Андрей Ургант, Дарья Дроздовская, Прохор Дубравин
Описание:
Андрей и Марина - родители близнецов Глеба и Светы. Жизнь супругов налажена, день расписан по часам. Они плохо помнят, что дети больше любят живых собак, чем игрушечных, а друзья родителей - не лучшая компания в день рождения. И вот однажды утром Андрей и Марина просыпаются в детской спальне, а Глеб и Света - в родительской. Их поменяли телами. Пора вспомнить, что любовь и внимание дороже денег и карьеры.

Возраст: 12+ (зрителям, достигшим 12 лет)
Рейтинг MPAA: этот продукт не был классифицирован
Релиз от: MAG3131
Продолжительность: 01:38:52
Качество видео: BDRip
Перевод: Не требуется
Субтитры: Отсутствуют
Видео: AVC/H.264, 720x316, ~2774 kbps, 23,976 fps
Аудио: AC3, 2 ch, 192 kbps

MediaInfo

Общее
Уникальный идентификатор : 7284833022644210705288938867005350626 (0x57B01FF8FE15CC22B7D40362F4C62E2)
Полное имя : Любовь-Морковь - 02 (Lovey-Dovey - 02).mkv
Формат : Matroska
Версия формата : Version 4
Размер файла : 2,05 Гбайт
Продолжительность : 1 ч. 38 м.
Общий поток : 2 965 Кбит/сек
Дата кодирования : UTC 2022-01-31 23:52:59
Программа кодирования : mkvmerge v64.0.0 ('Willows') 64-bit
Библиотека кодирования : libebml v1.4.2 + libmatroska v1.6.4
Attachments : Лог кодирования.log
Видео
Идентификатор : 1
Формат : AVC
Формат/Информация : Advanced Video Codec
Профиль формата : High@L4.1
Настройки формата : CABAC / 12 Ref Frames
Параметр CABAC формата : Да
Параметр RefFrames формата : 12 кадров
Идентификатор кодека : V_MPEG4/ISO/AVC
Продолжительность : 1 ч. 38 м.
Битрейт : 2 774 Кбит/сек
Ширина : 720 пикселей
Высота : 316 пикселей
Соотношение сторон : 2,25:1
Режим частоты кадров : Постоянный
Частота кадров : 23,976 (24000/1001) кадра/сек
Цветовое пространство : YUV
Субдискретизация насыщенности : 4:2:0
Битовая глубина : 8 бит
Тип развёртки : Прогрессивная
Бит/(Пиксели*Кадры) : 0.509
Размер потока : 1,87 Гбайт (92%)
Заголовок : Любовь-Морковь - 02 (Lovey-Dovey - 02)
Библиотека кодирования : x264 core 157 r2969 d4099dd
Настройки программы : cabac=1 / ref=12 / deblock=1:-1:-1 / analyse=0x3:0x133 / me=umh / subme=11 / psy=1 / psy_rd=1.00:0.15 / mixed_ref=1 / me_range=64 / chroma_me=1 / trellis=2 / 8x8dct=1 / cqm=0 / deadzone=21,11 / fast_pskip=0 / chroma_qp_offset=-3 / threads=10 / lookahead_threads=2 / sliced_threads=0 / nr=0 / decimate=0 / interlaced=0 / bluray_compat=0 / constrained_intra=0 / bframes=16 / b_pyramid=2 / b_adapt=2 / b_bias=0 / direct=3 / weightb=1 / open_gop=0 / weightp=2 / keyint=240 / keyint_min=23 / scenecut=40 / intra_refresh=0 / rc_lookahead=60 / rc=2pass / mbtree=0 / bitrate=2774 / ratetol=1.0 / qcomp=0.60 / qpmin=0 / qpmax=69 / qpstep=4 / cplxblur=20.0 / qblur=0.5 / vbv_maxrate=50000 / vbv_bufsize=62500 / nal_hrd=none / filler=0 / ip_ratio=1.40 / pb_ratio=1.30 / aq=1:1.00
Язык : Russian
Default : Да
Forced : Нет
Аудио
Идентификатор : 2
Формат : AC-3
Формат/Информация : Audio Coding 3
Коммерческое название : Dolby Digital
Идентификатор кодека : A_AC3
Продолжительность : 1 ч. 38 м.
Вид битрейта : Постоянный
Битрейт : 192 Кбит/сек
Каналы : 2 канала
Channel layout : L R
Частота : 48,0 КГц
Частота кадров : 31,250 кадров/сек (1536 SPF)
Метод сжатия : С потерями
Размер потока : 136 Мбайт (6%)
Заголовок : Оригинал (AC-3, Постоянный, 192 Кбит/сек, 2 канала, 48,0 КГц)
Язык : Russian
Service kind : Complete Main
Default : Да
Forced : Нет
Меню
00:00:00.000 : :Глава 01
00:07:14.434 : :Глава 02
00:14:53.893 : :Глава 03
00:20:21.220 : :Глава 04
00:31:13.872 : :Глава 05
00:40:03.401 : :Глава 06
00:47:45.863 : :Глава 07
00:55:52.349 : :Глава 08
01:04:39.667 : :Глава 09
01:10:25.221 : :Глава 10
01:21:10.866 : :Глава 11
01:29:02.337 : :Глава 12
01:38:36.744 : :Глава 13
Скриншоты:
Если надо вернуться на сидирование раздачи пишите в ЛС.
По вопросам изготовления рипов под заказ обращайтесь в ЛС.
[Профиль] [ЛС]
Показать сообщения:    
Ответить на тему

Текущее время: 24-Май 09:10

Часовой пояс: UTC + 3



Вы не можете начинать темы
Вы не можете отвечать на сообщения
Вы не можете редактировать свои сообщения
Вы не можете удалять свои сообщения
Вы не можете голосовать в опросах
Вы не можете прикреплять файлы к сообщениям
Вы не можете скачивать файлы