На игре (2009) BDRip [H.264]

Ответить на тему
 
Автор Сообщение

MAG3131 ®

Пол: Мужской

Стаж: 52 года

Сообщений: 108

Откуда: Санкт-Петербург

Создавать темы 23-Фев-2022 20:53

[Цитировать]

На игре (2009) BDRip [H.264] - Производство: Россия / Karoprokat, Продюсерский центр ИВАН
Жанр: боевик, фантастика, приключения
Режиссер: Павел Санаев
Продюсер: Леонид Огородников, Олег Андреев, Алексей Рязанцев
Актеры: Сергей Чирков, Марина Петренко, Павел Прилучный, Евгений Харланов, Тихон Жизневский, Нодар Сирадзе, Алексей Бардуков, Агния Дитковските, Виктор Вержбицкий, Борис Тенин
Описание:
После оглушительной победы на турнире по киберспорту команде геймеров вручают диски с только что разработанной игрой. Запустив игру, каждый из них подвергается воздействию, переводящему их игровые способности в реальные. Теперь и в жизни они лучшие бойцы, стрелки и гонщики.
Данное событие не остается незамеченным. Властные структуры путем шантажа, обмана и подкупа предлагают геймерам «работу». Но как только обман раскрывается, становится понятно, что они не герои, спасающие страну, а банальные наемные убийцы. Встает вопрос: как быть дальше? К тому же дисков у производителя еще много, и появление таких же, как они, профи – это вопрос времени.
Теперь перед геймерами стоит задача найти тираж и… либо уничтожить его, либо, создав и возглавив целую армию геймеров, диктовать свою волю... Команда разделилась. Каждый идет к своей цели.

Возраст: 18+ (зрителям, достигшим 18 лет. запрещено для детей)
Рейтинг MPAA: этот продукт не был классифицирован
Релиз от: MAG3131
Продолжительность: 01:34:06
Качество видео: BDRip
Перевод: Не требуется
Субтитры: Отсутствуют
Видео: AVC/H.264, 720x312, ~1884 kbps, 24 fps
Аудио: AC3, 2 ch, 192 kbps

MediaInfo

Общее
Уникальный идентификатор : 232425569250742703122257710686053508977 (0xAEDB894F4A5780B54FEF227A7E12A771)
Полное имя : На игре - 01 (Hooked - 01).mkv
Формат : Matroska
Версия формата : Version 4
Размер файла : 1,36 Гбайт
Продолжительность : 1 ч. 34 м.
Общий поток : 2 073 Кбит/сек
Дата кодирования : UTC 2022-02-02 15:56:13
Программа кодирования : mkvmerge v64.0.0 ('Willows') 64-bit
Библиотека кодирования : libebml v1.4.2 + libmatroska v1.6.4
Attachments : Лог кодирования.log
Видео
Идентификатор : 1
Формат : AVC
Формат/Информация : Advanced Video Codec
Профиль формата : High@L4.1
Настройки формата : CABAC / 12 Ref Frames
Параметр CABAC формата : Да
Параметр RefFrames формата : 12 кадров
Идентификатор кодека : V_MPEG4/ISO/AVC
Продолжительность : 1 ч. 34 м.
Битрейт : 1 884 Кбит/сек
Ширина : 720 пикселей
Высота : 312 пикселей
Соотношение сторон : 2,35:1
Режим частоты кадров : Постоянный
Частота кадров : 24,000 кадра/сек
Цветовое пространство : YUV
Субдискретизация насыщенности : 4:2:0
Битовая глубина : 8 бит
Тип развёртки : Прогрессивная
Бит/(Пиксели*Кадры) : 0.349
Размер потока : 1,21 Гбайт (89%)
Заголовок : На игре - 01 (Hooked - 01)
Библиотека кодирования : x264 core 157 r2969 d4099dd
Настройки программы : cabac=1 / ref=12 / deblock=1:-1:-1 / analyse=0x3:0x133 / me=umh / subme=11 / psy=1 / psy_rd=1.00:0.15 / mixed_ref=1 / me_range=64 / chroma_me=1 / trellis=2 / 8x8dct=1 / cqm=0 / deadzone=21,11 / fast_pskip=0 / chroma_qp_offset=-3 / threads=10 / lookahead_threads=2 / sliced_threads=0 / nr=0 / decimate=0 / interlaced=0 / bluray_compat=0 / constrained_intra=0 / bframes=16 / b_pyramid=2 / b_adapt=2 / b_bias=0 / direct=3 / weightb=1 / open_gop=0 / weightp=2 / keyint=240 / keyint_min=24 / scenecut=40 / intra_refresh=0 / rc_lookahead=60 / rc=2pass / mbtree=0 / bitrate=1884 / ratetol=1.0 / qcomp=0.60 / qpmin=0 / qpmax=69 / qpstep=4 / cplxblur=20.0 / qblur=0.5 / vbv_maxrate=50000 / vbv_bufsize=62500 / nal_hrd=none / filler=0 / ip_ratio=1.40 / pb_ratio=1.30 / aq=1:1.00
Язык : Russian
Default : Да
Forced : Нет
Аудио
Идентификатор : 2
Формат : AC-3
Формат/Информация : Audio Coding 3
Коммерческое название : Dolby Digital
Идентификатор кодека : A_AC3
Продолжительность : 1 ч. 34 м.
Вид битрейта : Постоянный
Битрейт : 192 Кбит/сек
Каналы : 2 канала
Channel layout : L R
Частота : 48,0 КГц
Частота кадров : 31,250 кадров/сек (1536 SPF)
Метод сжатия : С потерями
Размер потока : 129 Мбайт (9%)
Заголовок : Оригинал (AC-3, Постоянный, 192 Кбит/сек, 2 канала, 48,0 КГц)
Язык : Russian
Service kind : Complete Main
Default : Да
Forced : Нет
Меню
00:00:00.000 : :Глава 01
00:08:47.708 : :Глава 02
00:15:28.000 : :Глава 03
00:23:00.250 : :Глава 04
00:31:17.667 : :Глава 05
00:37:55.667 : :Глава 06
00:46:14.792 : :Глава 07
00:53:33.792 : :Глава 08
00:59:03.750 : :Глава 09
01:07:21.375 : :Глава 10
01:15:02.208 : :Глава 11
01:21:32.458 : :Глава 12
Скриншоты:
Если надо вернуться на сидирование раздачи пишите в ЛС.
По вопросам изготовления рипов под заказ обращайтесь в ЛС.
[Профиль] [ЛС]
Показать сообщения:    
Ответить на тему

Текущее время: 24-Май 09:49

Часовой пояс: UTC + 3



Вы не можете начинать темы
Вы не можете отвечать на сообщения
Вы не можете редактировать свои сообщения
Вы не можете удалять свои сообщения
Вы не можете голосовать в опросах
Вы не можете прикреплять файлы к сообщениям
Вы не можете скачивать файлы