Королева варваров 2: Сражение за скипетр Аркариса / Barbarian Queen 2: The Empress Strikes Back (1988) DVDRip [H.264]

Ответить на тему
 
Автор Сообщение

MAG3131 ®

Пол: Мужской

Стаж: 52 года

Сообщений: 108

Откуда: Санкт-Петербург

Создавать темы 11-Сен-2020 20:23

[Цитировать]

Королева варваров 2: Сражение за скипетр Аркариса / Barbarian Queen 2: The Empress Strikes Back (1988) DVDRip [H.264] - Производство: США, Мексика / Triana Films
Жанр: фэнтези, боевик, приключения
Режиссер: Джо Финли
Продюсер: Джеймс Альфаро, Роджер Корман, Антонио Де Норьега
Актеры: Лана Кларксон, Грег Вранглер, Ребекка Вуд, Элизабет А. Джагер, Роджер Кадни, Алехандро Брачо, Сесилия Тихерина, Ориетта Агилар, Каролина Валеро, Моника Стюер
Описание:
После смерти благородного короля Айко, его дочь, отважная красавица Офелия, становится пленницей коварного правителя Аркариса. Только из рук законной наследницы трона Аркарис может получить волшебный королевский скипетр власти, магическая сила которого сделает его непобедимым. Но Офелии удается бежать из плена.
Она находит убежище в лагере варваров. Их предводительница Эригина погибает в бою и Офелия становится Королевой Варваров. Она объявляет войну Аркарису. Чтобы освободить своих подданных из рабства и отомстить тирану прекрасная воительница и ее возлюбленный, принц Орион, должны преодолеть множество преград, рассеять колдовские чары и не раз скрестить клинки со свирепыми воинами Аркариса.

Возраст: 16+ (зрителям, достигшим 16 лет)
Рейтинг MPAA: R (лицам до 17 лет обязательно присутствие взрослого)
Релиз от: MAG3131
Продолжительность: 01:19:17
Качество видео: DVDRip
Перевод: Авторский
Субтитры: Отсутствуют
Видео: AVC/H.264, 632x480, ~4741 kbps, 23,976 fps
Аудио: AC3, 2 ch, 192 kbps (Русский - Авторский ''Вартан Дохалов'')

MediaInfo

Общее
Уникальный идентификатор : 191275861914875800222892225933809510534 (0x8FE664193BCB4D2F82243C162BD36886)
Полное имя : Королева варваров - 02 ''Сражение за скипетр Аркариса'' (Barbarian Queen - 02 ''The Empress Strikes Back'').mkv
Формат : Matroska
Версия формата : Version 2
Размер файла : 2,73 Гбайт
Продолжительность : 1 ч. 19 м.
Общий поток : 4 935 Кбит/сек
Дата кодирования : UTC 2015-05-16 22:47:17
Программа кодирования : mkvmerge v3.4.0 ('Rapunzel') сборка от May 15 2010 09:38:20
Библиотека кодирования : libebml v0.8.0 + libmatroska v0.9.0
Attachments : Лог кодирования.log
Видео
Идентификатор : 1
Формат : AVC
Формат/Информация : Advanced Video Codec
Профиль формата : High@L4.1
Настройки формата : CABAC / 11 Ref Frames
Параметр CABAC формата : Да
Параметр RefFrames формата : 11 кадров
Идентификатор кодека : V_MPEG4/ISO/AVC
Продолжительность : 1 ч. 19 м.
Битрейт : 4 741 Кбит/сек
Ширина : 632 пикселя
Высота : 480 пикселей
Соотношение сторон : 4:3
Режим частоты кадров : Постоянный
Частота кадров : 23,976 (24000/1001) кадра/сек
Цветовое пространство : YUV
Субдискретизация насыщенности : 4:2:0
Битовая глубина : 8 бит
Тип развёртки : Прогрессивная
Бит/(Пиксели*Кадры) : 0.652
Размер потока : 2,57 Гбайт (94%)
Заголовок : Королева варваров - 02 ''Сражение за скипетр Аркариса'' (Barbarian Queen - 02 ''The Empress Strikes Back'')
Библиотека кодирования : x264 core 146 r2538 121396c
Настройки программы : cabac=1 / ref=11 / deblock=1:-1:-1 / analyse=0x3:0x133 / me=umh / subme=11 / psy=1 / psy_rd=1.00:0.15 / mixed_ref=1 / me_range=64 / chroma_me=1 / trellis=2 / 8x8dct=1 / cqm=0 / deadzone=21,11 / fast_pskip=0 / chroma_qp_offset=-3 / threads=3 / lookahead_threads=1 / sliced_threads=0 / nr=0 / decimate=0 / interlaced=0 / bluray_compat=0 / constrained_intra=0 / bframes=16 / b_pyramid=2 / b_adapt=2 / b_bias=0 / direct=3 / weightb=1 / open_gop=0 / weightp=2 / keyint=240 / keyint_min=23 / scenecut=40 / intra_refresh=0 / rc_lookahead=60 / rc=2pass / mbtree=0 / bitrate=4741 / ratetol=1.0 / qcomp=0.60 / qpmin=0 / qpmax=69 / qpstep=4 / cplxblur=20.0 / qblur=0.5 / vbv_maxrate=50000 / vbv_bufsize=62500 / nal_hrd=none / filler=0 / ip_ratio=1.40 / pb_ratio=1.30 / aq=1:1.00
Язык : English
Default : Да
Forced : Нет
Аудио
Идентификатор : 2
Формат : AC-3
Формат/Информация : Audio Coding 3
Коммерческое название : Dolby Digital
Идентификатор кодека : A_AC3
Продолжительность : 1 ч. 19 м.
Вид битрейта : Постоянный
Битрейт : 192 Кбит/сек
Каналы : 2 канала
Channel layout : L R
Частота : 48,0 КГц
Частота кадров : 31,250 кадров/сек (1536 SPF)
Метод сжатия : С потерями
Размер потока : 109 Мбайт (4%)
Заголовок : Авторский ''Вартан Дохалов'' (AC-3, Постоянный, 192 Кбит/сек, 2 канала, 48,0 КГц)
Язык : Russian
Service kind : Complete Main
Default : Да
Forced : Нет
Меню
00:00:00.000 : en:Chapter 01
00:03:53.100 : en:Chapter 02
00:07:50.434 : en:Chapter 03
00:10:50.567 : en:Chapter 04
00:13:47.234 : en:Chapter 05
00:18:34.234 : en:Chapter 06
00:23:27.001 : en:Chapter 07
00:27:33.435 : en:Chapter 08
00:32:25.403 : en:Chapter 09
00:37:20.170 : en:Chapter 10
00:42:42.437 : en:Chapter 11
00:46:47.338 : en:Chapter 12
00:48:27.105 : en:Chapter 13
00:50:33.039 : en:Chapter 14
00:54:08.139 : en:Chapter 15
00:57:27.539 : en:Chapter 16
01:01:30.140 : en:Chapter 17
01:05:14.074 : en:Chapter 18
01:10:17.141 : en:Chapter 19
01:16:43.341 : en:Chapter 20
01:19:12.441 : en:Chapter 21
Скриншоты:
Если надо вернуться на сидирование раздачи пишите в ЛС.
По вопросам изготовления рипов под заказ обращайтесь в ЛС.
[Профиль] [ЛС]
Показать сообщения:    
Ответить на тему

Текущее время: 24-Май 09:29

Часовой пояс: UTC + 3



Вы не можете начинать темы
Вы не можете отвечать на сообщения
Вы не можете редактировать свои сообщения
Вы не можете удалять свои сообщения
Вы не можете голосовать в опросах
Вы не можете прикреплять файлы к сообщениям
Вы не можете скачивать файлы