Обитаемый остров (2008) BDRip [H.264]

Ответить на тему
 
Автор Сообщение

MAG3131 ®

Пол: Мужской

Стаж: 52 года

Сообщений: 108

Откуда: Санкт-Петербург

Создавать темы 23-Фев-2022 21:49

[Цитировать]

Обитаемый остров (2008) BDRip [H.264] - Производство: Россия / Арт Пикчерс Студия / Art Pictures Studio, Нон-стоп Продакшн, Телеканал СТС
Жанр: фантастика, боевик
Режиссер: Фёдор Бондарчук
Продюсер: Фёдор Бондарчук, Евгений Северов, Сергей Мелькумов
Актеры: Василий Степанов, Пётр Фёдоров, Юлия Снигирь, Алексей Серебряков, Фёдор Бондарчук, Борис Некрасов, Гоша Куценко, Сергей Гармаш, Анна Михалкова, Андрей Мерзликин
Описание:
2157 год – эпоха расцвета человеческой цивилизации. Пилоты Группы Свободного Поиска бороздят просторы Вселенной. Максим Камеррер совершает вынужденную посадку на планете Саракш, но уже через несколько минут его корабль будет уничтожен, а герой окажется узником неизвестной планеты. Вскоре Максим сталкивается с человеческой цивилизацией.
Уровень ее развития сопоставим с давно минувшим ХХ веком. После ядерной войны на планете царит экологический кризис, в обществе полно социальных проблем, а установившийся мир очень шаток. Максиму предстоит пережить много событий и пройти много испытаний, прежде чем он сможет спасти эту планету.

Возраст: 16+ (зрителям, достигшим 16 лет)
Рейтинг MPAA: этот продукт не был классифицирован
Релиз от: MAG3131
Продолжительность: 02:00:57
Качество видео: BDRip
Перевод: Не требуется
Субтитры: Отсутствуют
Видео: AVC/H.264, 720x312, ~2232 kbps, 23,976 fps
Аудио: AC3, 2 ch, 192 kbps

MediaInfo

Общее
Уникальный идентификатор : 15625040645621208630733094710710084416 (0xBC145FB533AE80815C8407C41AFA340)
Полное имя : Обитаемый остров - 01 (Dark Planet - 01).mkv
Формат : Matroska
Версия формата : Version 4
Размер файла : 2,05 Гбайт
Продолжительность : 2 ч. 0 м.
Общий поток : 2 421 Кбит/сек
Дата кодирования : UTC 2022-02-05 23:58:34
Программа кодирования : mkvmerge v64.0.0 ('Willows') 64-bit
Библиотека кодирования : libebml v1.4.2 + libmatroska v1.6.4
Attachments : Лог кодирования.log
Видео
Идентификатор : 1
Формат : AVC
Формат/Информация : Advanced Video Codec
Профиль формата : High@L4.1
Настройки формата : CABAC / 12 Ref Frames
Параметр CABAC формата : Да
Параметр RefFrames формата : 12 кадров
Идентификатор кодека : V_MPEG4/ISO/AVC
Продолжительность : 2 ч. 0 м.
Битрейт : 2 232 Кбит/сек
Ширина : 720 пикселей
Высота : 312 пикселей
Соотношение сторон : 2,35:1
Режим частоты кадров : Постоянный
Частота кадров : 23,976 (24000/1001) кадра/сек
Цветовое пространство : YUV
Субдискретизация насыщенности : 4:2:0
Битовая глубина : 8 бит
Тип развёртки : Прогрессивная
Бит/(Пиксели*Кадры) : 0.414
Размер потока : 1,84 Гбайт (90%)
Заголовок : Обитаемый остров - 01 (Dark Planet - 01)
Библиотека кодирования : x264 core 164 r3085 0bb85e8
Настройки программы : cabac=1 / ref=12 / deblock=1:-1:-1 / analyse=0x3:0x133 / me=umh / subme=11 / psy=1 / psy_rd=1.00:0.15 / mixed_ref=1 / me_range=64 / chroma_me=1 / trellis=2 / 8x8dct=1 / cqm=0 / deadzone=21,11 / fast_pskip=0 / chroma_qp_offset=-3 / threads=10 / lookahead_threads=2 / sliced_threads=0 / nr=0 / decimate=0 / interlaced=0 / bluray_compat=0 / constrained_intra=0 / bframes=16 / b_pyramid=2 / b_adapt=2 / b_bias=0 / direct=3 / weightb=1 / open_gop=0 / weightp=2 / keyint=240 / keyint_min=23 / scenecut=40 / intra_refresh=0 / rc_lookahead=60 / rc=2pass / mbtree=0 / bitrate=2232 / ratetol=1.0 / qcomp=0.60 / qpmin=0 / qpmax=69 / qpstep=4 / cplxblur=20.0 / qblur=0.5 / vbv_maxrate=50000 / vbv_bufsize=62500 / nal_hrd=none / filler=0 / ip_ratio=1.40 / pb_ratio=1.30 / aq=1:1.00
Язык : Russian
Default : Да
Forced : Нет
Аудио
Идентификатор : 2
Формат : AC-3
Формат/Информация : Audio Coding 3
Коммерческое название : Dolby Digital
Идентификатор кодека : A_AC3
Продолжительность : 2 ч. 0 м.
Вид битрейта : Постоянный
Битрейт : 192 Кбит/сек
Каналы : 2 канала
Channel layout : L R
Частота : 48,0 КГц
Частота кадров : 31,250 кадров/сек (1536 SPF)
Метод сжатия : С потерями
Размер потока : 166 Мбайт (8%)
Заголовок : Оригинал (AC-3, Постоянный, 192 Кбит/сек, 2 канала, 48,0 КГц)
Язык : Russian
Service kind : Complete Main
Default : Да
Forced : Нет
Меню
00:00:00.000 : :Глава 01
00:07:59.187 : :Глава 02
00:17:40.977 : :Глава 03
00:26:14.239 : :Глава 04
00:30:44.885 : :Глава 05
00:38:05.492 : :Глава 06
00:46:44.802 : :Глава 07
00:54:29.892 : :Глава 08
01:01:16.965 : :Глава 09
01:08:17.010 : :Глава 10
01:15:35.322 : :Глава 11
01:22:32.489 : :Глава 12
01:30:19.456 : :Глава 13
01:37:08.740 : :Глава 14
01:44:43.861 : :Глава 15
01:52:24.988 : :Глава 16
Скриншоты:
Если надо вернуться на сидирование раздачи пишите в ЛС.
По вопросам изготовления рипов под заказ обращайтесь в ЛС.
[Профиль] [ЛС]
Показать сообщения:    
Ответить на тему

Текущее время: 24-Май 10:02

Часовой пояс: UTC + 3



Вы не можете начинать темы
Вы не можете отвечать на сообщения
Вы не можете редактировать свои сообщения
Вы не можете удалять свои сообщения
Вы не можете голосовать в опросах
Вы не можете прикреплять файлы к сообщениям
Вы не можете скачивать файлы