Ловчий смерти 2: Битва титанов / Deathstalker 2 (1987) DVDRip [H.264] [Extended Cut]

Ответить на тему
 
Автор Сообщение

MAG3131 ®

Пол: Мужской

Стаж: 52 года

Сообщений: 108

Откуда: Санкт-Петербург

Создавать темы 11-Сен-2020 20:26

[Цитировать]

Ловчий смерти 2: Битва титанов / Deathstalker 2 (1987) DVDRip [H.264] [Extended Cut] - Производство: Аргентина, США / Aries Films International, New Horizons Picture
Жанр: фэнтези, комедия, приключения
Режиссер: Джим Уайнорски
Продюсер: Фрэнк К. Исаак, Роджер Корман, Эктор Оливера
Актеры: Джон Терлески, Моник Габриэль, Джон Лазар, Тони Нэплс, Мария Сокас, Маркос Воински, Ди Буэр, Жак Арндт, Карина Дави, Джим Уайнорски
Описание:
Великий воин вступает в единоборство с коварным королем Джераком и королевой Султаной, которые незаконно захватили королевство, по праву принадлежащее прекрасной принцессе Эви.
Ловчего смерти и принцессу поджидает множество опасностей - жестокие пираты, кровожадные амазонки, смертоносные болота, обольстительные ведьмы, зомби и другие ужасные существа, населяющие королевство Джерака. И только последняя битва решит, какое оружие сильнее - меч или колдовство!

Возраст: 0+ (для любой зрительской аудитории)
Рейтинг MPAA: R (лицам до 17 лет обязательно присутствие взрослого)
Релиз от: MAG3131
Продолжительность: 01:28:51
Качество видео: DVDRip
Перевод: Двухголосый
Субтитры: Отсутствуют
Видео: AVC/H.264, 648x480, ~2008 kbps, 23,976 fps
Аудио: AC3, 2 ch, 192 kbps (Русский - Двухголосый ''Ракурс'' с вставками авторского ''Андрей Гаврилов'')

MediaInfo

Общее
Уникальный идентификатор : 207625462576366179765341147549149897511 (0x9C3335A5ADC44CD521463AF900C72327)
Полное имя : Ловчий смерти - 02 ''Битва титанов'' (Расширенная версия) (Deathstalker - 02 ''Duel Of The Titans'') (Extended Cut).mkv
Формат : Matroska
Версия формата : Version 4
Размер файла : 1,37 Гбайт
Продолжительность : 1 ч. 28 м.
Общий поток : 2 202 Кбит/сек
Дата кодирования : UTC 2020-12-16 16:10:25
Программа кодирования : mkvmerge v51.0.0 ('I Wish') 64-bit
Библиотека кодирования : libebml v1.4.0 + libmatroska v1.6.2
Attachments : Лог кодирования.log
Видео
Идентификатор : 1
Формат : AVC
Формат/Информация : Advanced Video Codec
Профиль формата : High@L4.1
Настройки формата : CABAC / 11 Ref Frames
Параметр CABAC формата : Да
Параметр RefFrames формата : 11 кадров
Идентификатор кодека : V_MPEG4/ISO/AVC
Продолжительность : 1 ч. 28 м.
Битрейт : 2 008 Кбит/сек
Ширина : 648 пикселей
Высота : 480 пикселей
Соотношение сторон : 4:3
Режим частоты кадров : Постоянный
Частота кадров : 23,976 (24000/1001) кадра/сек
Цветовое пространство : YUV
Субдискретизация насыщенности : 4:2:0
Битовая глубина : 8 бит
Тип развёртки : Прогрессивная
Бит/(Пиксели*Кадры) : 0.269
Размер потока : 1,22 Гбайт (89%)
Заголовок : Ловчий смерти - 02 ''Битва титанов'' (Расширенная версия) (Deathstalker - 02 ''Duel Of The Titans'') (Extended Cut)
Библиотека кодирования : x264 core 146 r2538 121396c
Настройки программы : cabac=1 / ref=11 / deblock=1:-1:-1 / analyse=0x3:0x133 / me=umh / subme=11 / psy=1 / psy_rd=1.00:0.15 / mixed_ref=1 / me_range=64 / chroma_me=1 / trellis=2 / 8x8dct=1 / cqm=0 / deadzone=21,11 / fast_pskip=0 / chroma_qp_offset=-3 / threads=3 / lookahead_threads=1 / sliced_threads=0 / nr=0 / decimate=0 / interlaced=0 / bluray_compat=0 / constrained_intra=0 / bframes=16 / b_pyramid=2 / b_adapt=2 / b_bias=0 / direct=3 / weightb=1 / open_gop=0 / weightp=2 / keyint=240 / keyint_min=23 / scenecut=40 / intra_refresh=0 / rc_lookahead=60 / rc=2pass / mbtree=0 / bitrate=2008 / ratetol=1.0 / qcomp=0.60 / qpmin=0 / qpmax=69 / qpstep=4 / cplxblur=20.0 / qblur=0.5 / vbv_maxrate=50000 / vbv_bufsize=62500 / nal_hrd=none / filler=0 / ip_ratio=1.40 / pb_ratio=1.30 / aq=1:1.00
Язык : English
Default : Да
Forced : Нет
Аудио
Идентификатор : 2
Формат : AC-3
Формат/Информация : Audio Coding 3
Коммерческое название : Dolby Digital
Идентификатор кодека : A_AC3
Продолжительность : 1 ч. 28 м.
Вид битрейта : Постоянный
Битрейт : 192 Кбит/сек
Каналы : 2 канала
Channel layout : L R
Частота : 48,0 КГц
Частота кадров : 31,250 кадров/сек (1536 SPF)
Метод сжатия : С потерями
Размер потока : 122 Мбайт (9%)
Заголовок : Двухголосый ''Ракурс'' с вставками авторского ''Андрей Гаврилов'' (AC-3, Постоянный, 192 Кбит/сек, 2 канала, 48,0 КГц)
Язык : Russian
Service kind : Complete Main
Default : Да
Forced : Нет
Меню
00:00:00.000 : en:Chapter 01
00:04:43.801 : en:Chapter 02
00:09:10.801 : en:Chapter 03
00:15:30.801 : en:Chapter 04
00:19:48.801 : en:Chapter 05
00:24:11.801 : en:Chapter 06
00:28:00.801 : en:Chapter 07
00:31:39.301 : en:Chapter 08
00:39:07.301 : en:Chapter 09
00:42:58.801 : en:Chapter 10
00:51:04.801 : en:Chapter 11
00:52:56.801 : en:Chapter 12
00:56:49.801 : en:Chapter 13
00:58:41.801 : en:Chapter 14
01:01:05.301 : en:Chapter 15
01:04:44.801 : en:Chapter 16
01:07:17.801 : en:Chapter 17
01:12:26.801 : en:Chapter 18
01:16:37.301 : en:Chapter 19
01:23:08.801 : en:Chapter 20
01:28:45.301 : en:Chapter 21
Скриншоты:
Если надо вернуться на сидирование раздачи пишите в ЛС.
По вопросам изготовления рипов под заказ обращайтесь в ЛС.
[Профиль] [ЛС]
Показать сообщения:    
Ответить на тему

Текущее время: 24-Май 08:03

Часовой пояс: UTC + 3



Вы не можете начинать темы
Вы не можете отвечать на сообщения
Вы не можете редактировать свои сообщения
Вы не можете удалять свои сообщения
Вы не можете голосовать в опросах
Вы не можете прикреплять файлы к сообщениям
Вы не можете скачивать файлы