Ловчий смерти 4: Последняя великая битва / Deathstalker 4: Match of Titans (1990) DVDRip [H.264]

Ответить на тему
 
Автор Сообщение

MAG3131 ®

Пол: Мужской

Стаж: 52 года

Сообщений: 108

Откуда: Санкт-Петербург

Создавать темы 11-Сен-2020 20:32

[Цитировать]

Ловчий смерти 4: Последняя великая битва / Deathstalker 4: Match of Titans (1990) DVDRip [H.264] - Производство: США / Concorde-New Horizons
Жанр: фэнтези, боевик, приключения
Режиссер: Ховард Р. Коэн
Продюсер: Ховард Р. Коэн, Стивен Рэбинер, Роджер Корман
Актеры: Рик Хилл, Мария Форд, Бретт Бакстер Кларк, Мишель Моффетт, Аня Пенчева, Джоко Росич, Коста Карагеоргиев, Дженни Филипова, Румен Дмитров, Михаэла Стайкова
Описание:
Все великие воины Дальних Земель собираются в замке на вершине холма, чтобы сразиться друг с другом и определить сильнейшего. Нет среди них равного Ловчему смерти. Но участники турнира таинственным образом исчезают один за другим.
Хозяйка замка превращает могучих воинов в ужасную армию каменных монстров. Ловчий смерти вступает в битву. Он должен спасти товарищей и свою вновь обретенную любовь, победив коварную королеву.

Возраст: этот продукт не был классифицирован
Рейтинг MPAA: R (лицам до 17 лет обязательно присутствие взрослого)
Релиз от: MAG3131
Продолжительность: 01:31:58
Качество видео: DVDRip
Перевод: Двухголосый
Субтитры: Отсутствуют
Видео: AVC/H.264, 656x520, ~4061 kbps, 25 fps
Аудио: AC3, 2 ch, 192 kbps (Русский - Двухголосый ''Ракурс'')

MediaInfo

Общее
Уникальный идентификатор : 218180542554991120853385331249185194338 (0xA4240B44D31D7A26BA4D2E63AEBE8162)
Полное имя : I:\Фильмы на запись (MKV)\Фильмы на запись (MKV)\DVD\Ловчий смерти - 04 ''Последняя великая битва'' (Deathstalker - 04 ''Match Of Titans'').mkv
Формат : Matroska
Версия формата : Version 2
Размер файла : 2,73 Гбайт
Продолжительность : 1 ч. 31 м.
Общий поток : 4 255 Кбит/сек
Дата кодирования : UTC 2015-06-15 16:02:58
Программа кодирования : mkvmerge v3.4.0 ('Rapunzel') сборка от May 15 2010 09:38:20
Библиотека кодирования : libebml v0.8.0 + libmatroska v0.9.0
Attachments : Лог кодирования.log
Видео
Идентификатор : 1
Формат : AVC
Формат/Информация : Advanced Video Codec
Профиль формата : High@L4.1
Настройки формата : CABAC / 11 Ref Frames
Параметр CABAC формата : Да
Параметр RefFrames формата : 11 кадров
Идентификатор кодека : V_MPEG4/ISO/AVC
Продолжительность : 1 ч. 31 м.
Битрейт : 4 061 Кбит/сек
Ширина : 656 пикселей
Высота : 520 пикселей
Соотношение сторон : 5:4
Режим частоты кадров : Постоянный
Частота кадров : 25,000 кадров/сек
Цветовое пространство : YUV
Субдискретизация насыщенности : 4:2:0
Битовая глубина : 8 бит
Тип развёртки : Прогрессивная
Бит/(Пиксели*Кадры) : 0.476
Размер потока : 2,56 Гбайт (93%)
Заголовок : Ловчий смерти - 04 ''Последняя великая битва'' (Deathstalker - 04 ''Match Of Titans'')
Библиотека кодирования : x264 core 146 r2538 121396c
Настройки программы : cabac=1 / ref=11 / deblock=1:-1:-1 / analyse=0x3:0x133 / me=umh / subme=11 / psy=1 / psy_rd=1.00:0.15 / mixed_ref=1 / me_range=64 / chroma_me=1 / trellis=2 / 8x8dct=1 / cqm=0 / deadzone=21,11 / fast_pskip=0 / chroma_qp_offset=-3 / threads=3 / lookahead_threads=1 / sliced_threads=0 / nr=0 / decimate=0 / interlaced=0 / bluray_compat=0 / constrained_intra=0 / bframes=16 / b_pyramid=2 / b_adapt=2 / b_bias=0 / direct=3 / weightb=1 / open_gop=0 / weightp=2 / keyint=250 / keyint_min=25 / scenecut=40 / intra_refresh=0 / rc_lookahead=60 / rc=2pass / mbtree=0 / bitrate=4061 / ratetol=1.0 / qcomp=0.60 / qpmin=0 / qpmax=69 / qpstep=4 / cplxblur=20.0 / qblur=0.5 / vbv_maxrate=50000 / vbv_bufsize=62500 / nal_hrd=none / filler=0 / ip_ratio=1.40 / pb_ratio=1.30 / aq=1:1.00
Язык : English
Default : Да
Forced : Нет
Аудио
Идентификатор : 2
Формат : AC-3
Формат/Информация : Audio Coding 3
Коммерческое название : Dolby Digital
Идентификатор кодека : A_AC3
Продолжительность : 1 ч. 31 м.
Вид битрейта : Постоянный
Битрейт : 192 Кбит/сек
Каналы : 2 канала
Channel layout : L R
Частота : 48,0 КГц
Частота кадров : 31,250 кадров/сек (1536 SPF)
Метод сжатия : С потерями
Размер потока : 126 Мбайт (5%)
Заголовок : Двухголосый ''Студия ''Ракурс'''' (AC-3, Постоянный, 192 Кбит/сек, 2 канала, 48,0 КГц, 16 бит)
Язык : Russian
Service kind : Complete Main
Default : Да
Forced : Нет
Меню
00:00:00.000 : en:Chapter 01
00:01:22.360 : en:Chapter 02
00:01:23.560 : en:Chapter 03
00:07:03.640 : en:Chapter 04
00:11:17.480 : en:Chapter 05
00:21:08.840 : en:Chapter 06
00:30:34.320 : en:Chapter 07
00:42:03.640 : en:Chapter 08
00:49:36.560 : en:Chapter 09
00:57:52.520 : en:Chapter 10
01:08:53.120 : en:Chapter 11
01:14:25.040 : en:Chapter 12
01:20:50.840 : en:Chapter 13
01:26:26.680 : en:Chapter 14
01:33:21.560 : en:Chapter 15
Скриншоты:
Если надо вернуться на сидирование раздачи пишите в ЛС.
По вопросам изготовления рипов под заказ обращайтесь в ЛС.
[Профиль] [ЛС]
Показать сообщения:    
Ответить на тему

Текущее время: 24-Май 08:55

Часовой пояс: UTC + 3



Вы не можете начинать темы
Вы не можете отвечать на сообщения
Вы не можете редактировать свои сообщения
Вы не можете удалять свои сообщения
Вы не можете голосовать в опросах
Вы не можете прикреплять файлы к сообщениям
Вы не можете скачивать файлы