Снова в деле / Back in Business (1996) DVDRip [H.264]

Ответить на тему
 
Автор Сообщение

MAG3131 ®

Пол: Мужской

Стаж: 52 года

Сообщений: 108

Откуда: Санкт-Петербург

Создавать темы 11-Сен-2020 20:35

[Цитировать]

Снова в деле / Back in Business (1996) DVDRip [H.264] - Производство: США / Ocean Avenue Productions Inc., PFG Entertainment
Жанр: боевик, приключения
Режиссер: Филипп Мора
Продюсер: Питер МакАлеви, Гари Уичард, Дэниэл Герст
Актеры: Брайан Босворт, Джо Торри, Дара Томанович, Алан Скарф, Обри Биверс, Брайон Джеймс, Алекс Шаклин, Виктория Махони, Гай Торри, Майкл Кларк Дункан
Описание:
Отставной полицейский Джо Элкхарт, который волей своего лучшего друга и бывшего напарника Тони Данбара вновь втянут в бесконечную цепь кровавых перестрелок и головокружительных погонь. Встретив Тони после долгой разлуки, Джо неожиданно для себя оказывается в самом эпицентре урагана, где вместо ветра кругом свистят пули.
Агентство по борьбе с наркотиками и ФБР ведут расследование незаконной деятельности наркодельца - мультимиллионера Дэвида Эшби и связанных с ним коррумпированных полицейских и агентов ФБР. А Тони и Джо - главные действующие лица в этом деле, главные участники «игры», ставки в которой - миллионы долларов.

Возраст: 18+ (зрителям, достигшим 18 лет. запрещено для детей)
Рейтинг MPAA: R (лицам до 17 лет обязательно присутствие взрослого)
Релиз от: MAG3131
Продолжительность: 01:29:33
Качество видео: DVDRip
Перевод: Двухголосый
Субтитры: Отсутствуют
Видео: AVC/H.264, 712x296, ~3082 kbps, 25 fps
Аудио: AC3, 2 ch, 192 kbps (Русский - Двухголосый ''Студия ''Ракурс'')

MediaInfo

Общее
Уникальный идентификатор : 250829054672188521912218383504232772028 (0xBCB3EB31FDADC51398DBD528FE7971BC)
Полное имя : Невозмутимый - 02 ''Снова в деле'' (Stone Cold - 02 ''Back In Business'').mkv
Формат : Matroska
Версия формата : Version 2
Размер файла : 2,05 Гбайт
Продолжительность : 1 ч. 29 м.
Общий поток : 3 275 Кбит/сек
Дата кодирования : UTC 2017-04-25 11:40:42
Программа кодирования : mkvmerge v10.0.0 ('To Drown In You') 64bit
Библиотека кодирования : libebml v1.3.4 + libmatroska v1.4.5
Attachments : Лог кодирования.log
Видео
Идентификатор : 1
Формат : AVC
Формат/Информация : Advanced Video Codec
Профиль формата : High@L4.1
Настройки формата : CABAC / 11 Ref Frames
Параметр CABAC формата : Да
Параметр RefFrames формата : 11 кадров
Идентификатор кодека : V_MPEG4/ISO/AVC
Продолжительность : 1 ч. 29 м.
Битрейт : 3 082 Кбит/сек
Ширина : 712 пикселей
Высота : 296 пикселей
Соотношение сторон : 2,40:1
Режим частоты кадров : Постоянный
Частота кадров : 25,000 кадров/сек
Цветовое пространство : YUV
Субдискретизация насыщенности : 4:2:0
Битовая глубина : 8 бит
Тип развёртки : Прогрессивная
Бит/(Пиксели*Кадры) : 0.585
Размер потока : 1,89 Гбайт (92%)
Заголовок : Невозмутимый - 02 ''Снова в деле'' (Stone Cold - 02 ''Back In Business'')
Библиотека кодирования : x264 core 148 r2744 b97ae06
Настройки программы : cabac=1 / ref=11 / deblock=1:-1:-1 / analyse=0x3:0x133 / me=umh / subme=11 / psy=1 / psy_rd=1.00:0.15 / mixed_ref=1 / me_range=64 / chroma_me=1 / trellis=2 / 8x8dct=1 / cqm=0 / deadzone=21,11 / fast_pskip=0 / chroma_qp_offset=-3 / threads=6 / lookahead_threads=1 / sliced_threads=0 / nr=0 / decimate=0 / interlaced=0 / bluray_compat=0 / constrained_intra=0 / bframes=16 / b_pyramid=2 / b_adapt=2 / b_bias=0 / direct=3 / weightb=1 / open_gop=0 / weightp=2 / keyint=250 / keyint_min=25 / scenecut=40 / intra_refresh=0 / rc_lookahead=60 / rc=2pass / mbtree=0 / bitrate=3082 / ratetol=1.0 / qcomp=0.60 / qpmin=0 / qpmax=69 / qpstep=4 / cplxblur=20.0 / qblur=0.5 / vbv_maxrate=50000 / vbv_bufsize=62500 / nal_hrd=none / filler=0 / ip_ratio=1.40 / pb_ratio=1.30 / aq=1:1.00
Язык : English
Default : Да
Forced : Нет
Аудио
Идентификатор : 2
Формат : AC-3
Формат/Информация : Audio Coding 3
Коммерческое название : Dolby Digital
Идентификатор кодека : A_AC3
Продолжительность : 1 ч. 29 м.
Вид битрейта : Постоянный
Битрейт : 192 Кбит/сек
Каналы : 2 канала
Channel layout : L R
Частота : 48,0 КГц
Частота кадров : 31,250 кадров/сек (1536 SPF)
Метод сжатия : С потерями
Размер потока : 123 Мбайт (6%)
Заголовок : Двухголосый ''Студия ''Ракурс'''' (AC-3, Постоянный, 192 Кбит/сек, 2 канала, 48,0 КГц, 16 бит)
Язык : Russian
Service kind : Complete Main
Default : Да
Forced : Нет
Меню
00:00:00.000 : en:Chapter 01
00:08:21.440 : en:Chapter 02
00:12:43.000 : en:Chapter 03
00:16:02.880 : en:Chapter 04
00:23:40.080 : en:Chapter 05
00:26:09.320 : en:Chapter 06
00:28:56.120 : en:Chapter 07
00:33:10.440 : en:Chapter 08
00:36:48.520 : en:Chapter 09
00:46:30.800 : en:Chapter 10
00:49:43.120 : en:Chapter 11
00:55:14.880 : en:Chapter 12
00:56:36.000 : en:Chapter 13
01:03:47.280 : en:Chapter 14
01:07:43.640 : en:Chapter 15
01:13:22.480 : en:Chapter 16
01:18:13.200 : en:Chapter 17
01:21:41.000 : en:Chapter 18
01:23:53.200 : en:Chapter 19
01:24:56.360 : en:Chapter 20
01:26:39.720 : en:Chapter 21
01:29:33.400 : en:Chapter 22
Скриншоты:
Если надо вернуться на сидирование раздачи пишите в ЛС.
По вопросам изготовления рипов под заказ обращайтесь в ЛС.
[Профиль] [ЛС]
Показать сообщения:    
Ответить на тему

Текущее время: 24-Май 09:48

Часовой пояс: UTC + 3



Вы не можете начинать темы
Вы не можете отвечать на сообщения
Вы не можете редактировать свои сообщения
Вы не можете удалять свои сообщения
Вы не можете голосовать в опросах
Вы не можете прикреплять файлы к сообщениям
Вы не можете скачивать файлы