Домашний арест / House Arrest (1996) WEB-DLRip [H.264]

Ответить на тему
 
Автор Сообщение

MAG3131 ®

Пол: Мужской

Стаж: 52 года

Сообщений: 108

Откуда: Санкт-Петербург

Создавать темы 11-Сен-2020 21:02

[Цитировать]

Домашний арест / House Arrest (1996) WEB-DLRip [H.264] - Производство: США / Metro-Goldwyn-Mayer (MGM), Rysher Entertainment
Жанр: комедия, семейный
Режиссер: Гарри Уайнер
Продюсер: Джудит А. Полон, Гарри Уайнер, Джон Кауэн
Актеры: Джейми Ли Кёртис, Кевин Поллак, Кайл Ховард, Уоллес Шоун, Кристофер МакДональд, Дженнифер Лав Хьюитт, Дженнифер Тилли, Эми Сакасиц, Муки Аризона, Кэролайн Аарон
Описание:
Брат с сестрой узнали, что их родители задумали разойтись. По совету одноклассника они заманили их в подвал и заколотили дверь, объявив, что не выпустят, пока те не решат все свои проблемы. На следующий же день это стало известно всей школе, и вскоре другие подростки, у которых в семье не было полного счастья, поместили своих «предков» в тот же подвал, заменив дверь стальной решеткой...

Возраст: 0+ (для любой зрительской аудитории)
Рейтинг MPAA: PG (рекомендуется присутствие родителей)
Релиз от: MAG3131
Продолжительность: 01:48:55
Качество видео: WEB-DLRip
Перевод: Многоголосый
Субтитры: Отсутствуют
Видео: AVC/H.264, 720x408, ~2114 kbps, 23,976 fps
Аудио #1: AC3, 2 ch, 192 kbps (Русский - Многоголосый ''Paramount Channel'')
Аудио #2: AC3, 2 ch, 192 kbps (Русский - Многоголосый ''Фильм-экспорт / СТС'')
Аудио #3: AC3, 2 ch, 192 kbps (Русский - Многоголосый ''ТВ3'')

MediaInfo

Общее
Уникальный идентификатор : 63350344738660243738558002440203362938 (0x2FA8D524BEE2744EE54D64981447627A)
Полное имя : Домашний арест (House Arrest).mkv
Формат : Matroska
Версия формата : Version 2
Размер файла : 2,05 Гбайт
Продолжительность : 1 ч. 48 м.
Общий поток : 2 692 Кбит/сек
Дата кодирования : UTC 2020-08-30 15:03:16
Программа кодирования : mkvmerge v49.0.0 ('Sick Of Losing Soulmates') 64-bit
Библиотека кодирования : libebml v1.4.0 + libmatroska v1.6.1
Attachments : Лог кодирования.log
Видео
Идентификатор : 1
Формат : AVC
Формат/Информация : Advanced Video Codec
Профиль формата : High@L4.1
Настройки формата : CABAC / 12 Ref Frames
Параметр CABAC формата : Да
Параметр RefFrames формата : 12 кадров
Идентификатор кодека : V_MPEG4/ISO/AVC
Продолжительность : 1 ч. 48 м.
Битрейт : 2 114 Кбит/сек
Ширина : 720 пикселей
Высота : 408 пикселей
Соотношение сторон : 16:9
Режим частоты кадров : Постоянный
Частота кадров : 23,976 (24000/1001) кадра/сек
Цветовое пространство : YUV
Субдискретизация насыщенности : 4:2:0
Битовая глубина : 8 бит
Тип развёртки : Прогрессивная
Бит/(Пиксели*Кадры) : 0.300
Размер потока : 1,57 Гбайт (77%)
Заголовок : Домашний арест (House Arrest)
Библиотека кодирования : x264 core 157 r2969 d4099dd
Настройки программы : cabac=1 / ref=12 / deblock=1:-1:-1 / analyse=0x3:0x133 / me=umh / subme=11 / psy=1 / psy_rd=1.00:0.15 / mixed_ref=1 / me_range=64 / chroma_me=1 / trellis=2 / 8x8dct=1 / cqm=0 / deadzone=21,11 / fast_pskip=0 / chroma_qp_offset=-3 / threads=6 / lookahead_threads=1 / sliced_threads=0 / nr=0 / decimate=0 / interlaced=0 / bluray_compat=0 / constrained_intra=0 / bframes=16 / b_pyramid=2 / b_adapt=2 / b_bias=0 / direct=3 / weightb=1 / open_gop=0 / weightp=2 / keyint=240 / keyint_min=23 / scenecut=40 / intra_refresh=0 / rc_lookahead=60 / rc=2pass / mbtree=0 / bitrate=2114 / ratetol=1.0 / qcomp=0.60 / qpmin=0 / qpmax=69 / qpstep=4 / cplxblur=20.0 / qblur=0.5 / vbv_maxrate=50000 / vbv_bufsize=62500 / nal_hrd=none / filler=0 / ip_ratio=1.40 / pb_ratio=1.30 / aq=1:1.00
Язык : English
Default : Да
Forced : Нет
Аудио #1
Идентификатор : 2
Формат : AC-3
Формат/Информация : Audio Coding 3
Коммерческое название : Dolby Digital
Идентификатор кодека : A_AC3
Продолжительность : 1 ч. 48 м.
Вид битрейта : Постоянный
Битрейт : 192 Кбит/сек
Каналы : 2 канала
Channel layout : L R
Частота : 48,0 КГц
Частота кадров : 31,250 кадров/сек (1536 SPF)
Метод сжатия : С потерями
Размер потока : 150 Мбайт (7%)
Заголовок : Многоголосый ''Paramount Channel'' (AC-3, Постоянный, 192 Кбит/сек, 2 канала, 48,0 КГц)
Язык : Russian
Service kind : Complete Main
Default : Да
Forced : Нет
Аудио #2
Идентификатор : 3
Формат : AC-3
Формат/Информация : Audio Coding 3
Коммерческое название : Dolby Digital
Идентификатор кодека : A_AC3
Продолжительность : 1 ч. 48 м.
Вид битрейта : Постоянный
Битрейт : 192 Кбит/сек
Каналы : 2 канала
Channel layout : L R
Частота : 48,0 КГц
Частота кадров : 31,250 кадров/сек (1536 SPF)
Метод сжатия : С потерями
Размер потока : 150 Мбайт (7%)
Заголовок : Многоголосый ''Фильм-экспорт / СТС'' (AC-3, Постоянный, 192 Кбит/сек, 2 канала, 48,0 КГц)
Язык : Russian
Service kind : Complete Main
Default : Нет
Forced : Нет
Аудио #3
Идентификатор : 4
Формат : AC-3
Формат/Информация : Audio Coding 3
Коммерческое название : Dolby Digital
Идентификатор кодека : A_AC3
Продолжительность : 1 ч. 48 м.
Вид битрейта : Постоянный
Битрейт : 192 Кбит/сек
Каналы : 2 канала
Channel layout : L R
Частота : 48,0 КГц
Частота кадров : 31,250 кадров/сек (1536 SPF)
Метод сжатия : С потерями
Размер потока : 150 Мбайт (7%)
Заголовок : Многоголосый ''ТВ3'' (AC-3, Постоянный, 192 Кбит/сек, 2 канала, 48,0 КГц)
Язык : Russian
Service kind : Complete Main
Default : Нет
Forced : Нет
Меню
00:00:00.000 : en:Chapter 01
00:07:22.669 : en:Chapter 02
00:17:51.370 : en:Chapter 03
00:21:11.837 : en:Chapter 04
00:31:56.170 : en:Chapter 05
00:39:15.671 : en:Chapter 06
00:45:38.672 : en:Chapter 07
00:55:50.506 : en:Chapter 08
00:59:37.107 : en:Chapter 09
01:09:37.841 : en:Chapter 10
01:19:57.841 : en:Chapter 11
01:27:29.042 : en:Chapter 12
01:32:02.209 : en:Chapter 13
Скриншоты:
Если надо вернуться на сидирование раздачи пишите в ЛС.
По вопросам изготовления рипов под заказ обращайтесь в ЛС.
[Профиль] [ЛС]
Показать сообщения:    
Ответить на тему

Текущее время: 24-Май 08:25

Часовой пояс: UTC + 3



Вы не можете начинать темы
Вы не можете отвечать на сообщения
Вы не можете редактировать свои сообщения
Вы не можете удалять свои сообщения
Вы не можете голосовать в опросах
Вы не можете прикреплять файлы к сообщениям
Вы не можете скачивать файлы