Если бы взгляды могли убивать / If Looks Could Kill (1991) WEB-DLRip [H.264]

Ответить на тему
 
Автор Сообщение

MAG3131 ®

Пол: Мужской

Стаж: 52 года

Сообщений: 108

Откуда: Санкт-Петербург

Создавать темы 11-Сен-2020 21:06

[Цитировать]

Если бы взгляды могли убивать / If Looks Could Kill (1991) WEB-DLRip [H.264] - Производство: США, Канада / Warner Brothers
Жанр: боевик, комедия, приключения
Режиссер: Уильям Дир
Продюсер: Нил Мерон, Крэйг Зэдан, Дэвид Коутсворт
Актеры: Ричард Греко, Роджер Рис, Линда Хант, Робин Бартлетт, Габриель Анвар, Джеральдин Джеймс, Майкл Сиберри, Кэрол Дэвис, Фредерик Коффин, Том Рэк
Описание:
Американского старшеклассника, отправляющегося во Францию на экскурсию, из-за рокового стечения обстоятельств принимают за опаснейшего агента ЦРУ и вовлекают в головокружительный водоворот приключений, удивительно напоминающих похождения Джеймса Бонда.

Возраст: этот продукт не был классифицирован
Рейтинг MPAA: PG-13 (детям до 13 лет просмотр нежелателен)
Релиз от: MAG3131
Продолжительность: 01:28:19
Качество видео: WEB-DLRip
Перевод: Двухголосый
Субтитры: Отсутствуют
Видео: AVC/H.264, 720x408, ~2021 kbps, 23,976 fps
Аудио: AC3, 2 ch, 192 kbps (Русский - Двухголосый)

MediaInfo

Общее
Уникальный идентификатор : 334030667054616065952174721918871866311 (0xFB4BF7662605C20C0BDB8401EF550BC7)
Полное имя : Если бы взгляды могли убивать (If Looks Could Kill).mkv
Формат : Matroska
Версия формата : Version 2
Размер файла : 1,37 Гбайт
Продолжительность : 1 ч. 28 м.
Общий поток : 2 215 Кбит/сек
Дата кодирования : UTC 2020-08-21 15:58:41
Программа кодирования : mkvmerge v49.0.0 ('Sick Of Losing Soulmates') 64-bit
Библиотека кодирования : libebml v1.4.0 + libmatroska v1.6.1
Attachments : Лог кодирования.log
Видео
Идентификатор : 1
Формат : AVC
Формат/Информация : Advanced Video Codec
Профиль формата : High@L4.1
Настройки формата : CABAC / 12 Ref Frames
Параметр CABAC формата : Да
Параметр RefFrames формата : 12 кадров
Идентификатор кодека : V_MPEG4/ISO/AVC
Продолжительность : 1 ч. 28 м.
Битрейт : 2 021 Кбит/сек
Ширина : 720 пикселей
Высота : 408 пикселей
Соотношение сторон : 16:9
Режим частоты кадров : Постоянный
Частота кадров : 23,976 (24000/1001) кадра/сек
Цветовое пространство : YUV
Субдискретизация насыщенности : 4:2:0
Битовая глубина : 8 бит
Тип развёртки : Прогрессивная
Бит/(Пиксели*Кадры) : 0.287
Размер потока : 1,22 Гбайт (89%)
Заголовок : Если бы взгляды могли убивать (If Looks Could Kill)
Библиотека кодирования : x264 core 157 r2969 d4099dd
Настройки программы : cabac=1 / ref=12 / deblock=1:-1:-1 / analyse=0x3:0x133 / me=umh / subme=11 / psy=1 / psy_rd=1.00:0.15 / mixed_ref=1 / me_range=64 / chroma_me=1 / trellis=2 / 8x8dct=1 / cqm=0 / deadzone=21,11 / fast_pskip=0 / chroma_qp_offset=-3 / threads=6 / lookahead_threads=1 / sliced_threads=0 / nr=0 / decimate=0 / interlaced=0 / bluray_compat=0 / constrained_intra=0 / bframes=16 / b_pyramid=2 / b_adapt=2 / b_bias=0 / direct=3 / weightb=1 / open_gop=0 / weightp=2 / keyint=240 / keyint_min=23 / scenecut=40 / intra_refresh=0 / rc_lookahead=60 / rc=2pass / mbtree=0 / bitrate=2021 / ratetol=1.0 / qcomp=0.60 / qpmin=0 / qpmax=69 / qpstep=4 / cplxblur=20.0 / qblur=0.5 / vbv_maxrate=50000 / vbv_bufsize=62500 / nal_hrd=none / filler=0 / ip_ratio=1.40 / pb_ratio=1.30 / aq=1:1.00
Язык : English
Default : Да
Forced : Нет
Аудио
Идентификатор : 2
Формат : AC-3
Формат/Информация : Audio Coding 3
Коммерческое название : Dolby Digital
Идентификатор кодека : A_AC3
Продолжительность : 1 ч. 28 м.
Вид битрейта : Постоянный
Битрейт : 192 Кбит/сек
Каналы : 2 канала
Channel layout : L R
Частота : 48,0 КГц
Частота кадров : 31,250 кадров/сек (1536 SPF)
Метод сжатия : С потерями
Размер потока : 121 Мбайт (9%)
Заголовок : Двухголосый ''Неизвестно'' (AC-3, Постоянный, 192 Кбит/сек, 2 канала, 48,0 КГц)
Язык : Russian
Service kind : Complete Main
Default : Да
Forced : Нет
Меню
00:00:00.000 : :Chapter 01
00:10:00.267 : :Chapter 02
00:19:59.768 : :Chapter 03
00:30:00.268 : :Chapter 04
00:40:00.769 : :Chapter 05
00:50:00.270 : :Chapter 06
01:00:00.270 : :Chapter 07
01:09:59.771 : :Chapter 08
01:20:00.271 : :Chapter 09
Скриншоты:
Если надо вернуться на сидирование раздачи пишите в ЛС.
По вопросам изготовления рипов под заказ обращайтесь в ЛС.
[Профиль] [ЛС]
Показать сообщения:    
Ответить на тему

Текущее время: 24-Май 09:15

Часовой пояс: UTC + 3



Вы не можете начинать темы
Вы не можете отвечать на сообщения
Вы не можете редактировать свои сообщения
Вы не можете удалять свои сообщения
Вы не можете голосовать в опросах
Вы не можете прикреплять файлы к сообщениям
Вы не можете скачивать файлы