Влипли! / Zapped! (1982) BDRip [H.264]

Ответить на тему
 
Автор Сообщение

MAG3131 ®

Пол: Мужской

Стаж: 52 года

Сообщений: 108

Откуда: Санкт-Петербург

Создавать темы 11-Сен-2020 21:09

[Цитировать]

Влипли! / Zapped! (1982) BDRip [H.264] - Производство: США / Apple / Rose, City Films, Embassy Pictures, Major Studio Partners, Thunder Associates
Жанр: фантастика, фэнтези, комедия
Режиссер: Роберт Дж. Розенталь
Продюсер: Джефф Эппл, Томас М. Хэммел, Джонатан Ной Кривин
Актеры: Скотт Байо, Вилли Эймс, Роберт Мэндан, Фелис Шатер, Скэтмэн Крозерс, Роджер Боуэн, Мьюз Смолл, Грег Брэдфорд, Хилари Бин, Сью Эни Лэнгдон
Описание:
Легкая комедия о старшекласснике, увлекающемся научными опытами. Он случайно наделил себя телекинетическими способностями, когда его стукнуло по голове после взрыва в лаборатории. Новые возможности круто меняют его жизнь...

Возраст: этот продукт не был классифицирован
Рейтинг MPAA: R (лицам до 17 лет обязательно присутствие взрослого)
Релиз от: MAG3131
Продолжительность: 01:38:12
Качество видео: BDRip
Перевод: Авторский, Одноголосый
Субтитры: Отсутствуют
Видео: AVC/H.264, 720x392, ~2409 kbps, 23,976 fps
Аудио #01: AC3, 2 ch, 192 kbps (Русский - Авторский ''Вартан Дохалов'')
Аудио #02: AC3, 2 ch, 192 kbps (Русский - Авторский ''Алексей Михалев'')
Аудио #03: AC3, 2 ch, 192 kbps (Русский - Одноголосый ''Первый канал'')

MediaInfo

Общее
Уникальный идентификатор : 141258784524018633712073110337576873665 (0x6A4573CA14A1E119669C6E0C2E6DAEC1)
Полное имя : Влипли! - 01 (1982 год) (Zapped! - 01) (1982 Year).mkv
Формат : Matroska
Версия формата : Version 2
Размер файла : 2,05 Гбайт
Продолжительность : 1 ч. 38 м.
Общий поток : 2 987 Кбит/сек
Дата кодирования : UTC 2020-08-23 03:47:05
Программа кодирования : mkvmerge v49.0.0 ('Sick Of Losing Soulmates') 64-bit
Библиотека кодирования : libebml v1.4.0 + libmatroska v1.6.1
Attachments : Лог кодирования.log
Видео
Идентификатор : 1
Формат : AVC
Формат/Информация : Advanced Video Codec
Профиль формата : High@L4.1
Настройки формата : CABAC / 12 Ref Frames
Параметр CABAC формата : Да
Параметр RefFrames формата : 12 кадров
Идентификатор кодека : V_MPEG4/ISO/AVC
Продолжительность : 1 ч. 38 м.
Битрейт : 2 409 Кбит/сек
Ширина : 720 пикселей
Высота : 392 пикселя
Соотношение сторон : 1,85:1
Режим частоты кадров : Постоянный
Частота кадров : 23,976 (24000/1001) кадра/сек
Цветовое пространство : YUV
Субдискретизация насыщенности : 4:2:0
Битовая глубина : 8 бит
Тип развёртки : Прогрессивная
Бит/(Пиксели*Кадры) : 0.356
Размер потока : 1,61 Гбайт (79%)
Заголовок : Влипли! - 01 (1982 год) (Zapped! - 01) (1982 Year)
Библиотека кодирования : x264 core 157 r2969 d4099dd
Настройки программы : cabac=1 / ref=12 / deblock=1:-1:-1 / analyse=0x3:0x133 / me=umh / subme=11 / psy=1 / psy_rd=1.00:0.15 / mixed_ref=1 / me_range=64 / chroma_me=1 / trellis=2 / 8x8dct=1 / cqm=0 / deadzone=21,11 / fast_pskip=0 / chroma_qp_offset=-3 / threads=6 / lookahead_threads=1 / sliced_threads=0 / nr=0 / decimate=0 / interlaced=0 / bluray_compat=0 / constrained_intra=0 / bframes=16 / b_pyramid=2 / b_adapt=2 / b_bias=0 / direct=3 / weightb=1 / open_gop=0 / weightp=2 / keyint=240 / keyint_min=23 / scenecut=40 / intra_refresh=0 / rc_lookahead=60 / rc=2pass / mbtree=0 / bitrate=2409 / ratetol=1.0 / qcomp=0.60 / qpmin=0 / qpmax=69 / qpstep=4 / cplxblur=20.0 / qblur=0.5 / vbv_maxrate=50000 / vbv_bufsize=62500 / nal_hrd=none / filler=0 / ip_ratio=1.40 / pb_ratio=1.30 / aq=1:1.00
Язык : English
Default : Да
Forced : Нет
Аудио #1
Идентификатор : 2
Формат : AC-3
Формат/Информация : Audio Coding 3
Коммерческое название : Dolby Digital
Идентификатор кодека : A_AC3
Продолжительность : 1 ч. 38 м.
Вид битрейта : Постоянный
Битрейт : 192 Кбит/сек
Каналы : 2 канала
Channel layout : L R
Частота : 48,0 КГц
Частота кадров : 31,250 кадров/сек (1536 SPF)
Метод сжатия : С потерями
Размер потока : 135 Мбайт (6%)
Заголовок : Авторский ''Вартан Дохалов'' (AC-3, Постоянный, 192 Кбит/сек, 2 канала, 48,0 КГц)
Язык : Russian
Service kind : Complete Main
Default : Да
Forced : Нет
Аудио #2
Идентификатор : 3
Формат : AC-3
Формат/Информация : Audio Coding 3
Коммерческое название : Dolby Digital
Идентификатор кодека : A_AC3
Продолжительность : 1 ч. 38 м.
Вид битрейта : Постоянный
Битрейт : 192 Кбит/сек
Каналы : 2 канала
Channel layout : L R
Частота : 48,0 КГц
Частота кадров : 31,250 кадров/сек (1536 SPF)
Метод сжатия : С потерями
Размер потока : 135 Мбайт (6%)
Заголовок : Авторский ''Алексей Михалев'' (AC-3, Постоянный, 192 Кбит/сек, 2 канала, 48,0 КГц)
Язык : Russian
Service kind : Complete Main
Default : Нет
Forced : Нет
Аудио #3
Идентификатор : 4
Формат : AC-3
Формат/Информация : Audio Coding 3
Коммерческое название : Dolby Digital
Идентификатор кодека : A_AC3
Продолжительность : 1 ч. 38 м.
Вид битрейта : Постоянный
Битрейт : 192 Кбит/сек
Каналы : 2 канала
Channel layout : L R
Частота : 48,0 КГц
Частота кадров : 31,250 кадров/сек (1536 SPF)
Метод сжатия : С потерями
Размер потока : 135 Мбайт (6%)
Заголовок : Одноголосый ''Первый канал'' (AC-3, Постоянный, 192 Кбит/сек, 2 канала, 48,0 КГц)
Язык : Russian
Service kind : Complete Main
Default : Нет
Forced : Нет
Меню
00:00:00.000 : :Chapter 01
00:06:56.767 : :Chapter 02
00:11:34.601 : :Chapter 03
00:14:07.235 : :Chapter 04
00:19:09.236 : :Chapter 05
00:23:04.236 : :Chapter 06
00:26:15.903 : :Chapter 07
00:31:38.070 : :Chapter 08
00:34:02.571 : :Chapter 09
00:40:07.238 : :Chapter 10
00:45:20.738 : :Chapter 11
00:48:28.072 : :Chapter 12
00:55:23.240 : :Chapter 13
00:59:01.941 : :Chapter 14
01:04:05.941 : :Chapter 15
01:08:28.109 : :Chapter 16
01:11:43.242 : :Chapter 17
01:15:32.742 : :Chapter 18
01:18:30.909 : :Chapter 19
01:20:57.777 : :Chapter 20
01:27:37.245 : :Chapter 21
01:30:01.612 : :Chapter 22
01:33:02.580 : :Chapter 23
01:34:34.747 : :Chapter 24
Скриншоты:
Если надо вернуться на сидирование раздачи пишите в ЛС.
По вопросам изготовления рипов под заказ обращайтесь в ЛС.
[Профиль] [ЛС]
Показать сообщения:    
Ответить на тему

Текущее время: 24-Май 08:29

Часовой пояс: UTC + 3



Вы не можете начинать темы
Вы не можете отвечать на сообщения
Вы не можете редактировать свои сообщения
Вы не можете удалять свои сообщения
Вы не можете голосовать в опросах
Вы не можете прикреплять файлы к сообщениям
Вы не можете скачивать файлы