Ангел света / Gabriel (2007) WEB-DLRip [H.264]

Ответить на тему
 
Автор Сообщение

MAG3131 ®

Пол: Мужской

Стаж: 52 года

Сообщений: 108

Откуда: Санкт-Петербург

Создавать темы 13-Сен-2020 01:35

[Цитировать]

Ангел света / Gabriel (2007) WEB-DLRip [H.264] - Производство: Австралия / HILT Productions, Redline Films
Жанр: ужасы, фэнтези, боевик, триллер
Режиссер: Шейн Эббесс
Продюсер: Шейн Эббесс, Анна Катарина Кридлэнд, Кристи Вернон
Актеры: Энди Уитфилд, Дуэйн Стивенсон, Саманта Ноубл, Майкл Пиччирилли, Джек Кэмпбелл, Эрика Хейнатц, Гарри Павлидис, Кевин Коуплэнд, Мэтт Хилтон Тодд, Брендан Клиркин
Описание:
Иная действительность. Пространство Небытия между раем и преисподней, где господствует мрак, и ведутся вековые битвы за возрожденные души. Архангел Гавриил - божественный вестник - послан с небес, чтобы вновь разжечь утраченный Свет и низвергнуть власть Тьмы в... Чистилище. Гавриил вынужден принять человеческий облик.
Но на пороге решающей битвы с Падшими Ангелами его начинает обуревать внутренняя борьба с собственными человеческими чувствами. Устоит ли Он в этом противоборстве? Ведь Он - последний Луч Надежды в царстве Тьмы.

Возраст: 16+ (зрителям, достигшим 16 лет)
Рейтинг MPAA: R (лицам до 17 лет обязательно присутствие взрослого)
Релиз от: MAG3131
Продолжительность: 01:54:05
Качество видео: WEB-DLRip
Перевод: Многоголосый
Субтитры: Отсутствуют
Видео: AVC/H.264, 720x306, ~663 kbps, 23,976 fps
Аудио: AC3, 2 ch, 192 kbps (Русский - Многоголосый)

MediaInfo

Общее
Уникальный идентификатор : 308165569633588821137554036775491813711 (0xE7D687A38170B48CE3C809FC4B55414F)
Полное имя : Ангел света (Gabriel).mkv
Формат : Matroska
Версия формата : Version 4
Размер файла : 698 Мбайт
Продолжительность : 1 ч. 54 м.
Общий поток : 856 Кбит/сек
Дата кодирования : UTC 2020-09-12 21:45:23
Программа кодирования : mkvmerge v50.0.0 ('Awakenings') 64-bit
Библиотека кодирования : libebml v1.4.0 + libmatroska v1.6.2
Attachments : Лог кодирования.log
Видео
Идентификатор : 1
Формат : AVC
Формат/Информация : Advanced Video Codec
Профиль формата : High@L4.1
Настройки формата : CABAC / 12 Ref Frames
Параметр CABAC формата : Да
Параметр RefFrames формата : 12 кадров
Идентификатор кодека : V_MPEG4/ISO/AVC
Продолжительность : 1 ч. 54 м.
Битрейт : 663 Кбит/сек
Ширина : 720 пикселей
Высота : 306 пикселей
Соотношение сторон : 2,35:1
Режим частоты кадров : Постоянный
Частота кадров : 23,976 (24000/1001) кадра/сек
Цветовое пространство : YUV
Субдискретизация насыщенности : 4:2:0
Битовая глубина : 8 бит
Тип развёртки : Прогрессивная
Бит/(Пиксели*Кадры) : 0.126
Размер потока : 528 Мбайт (76%)
Заголовок : Ангел света (Gabriel)
Библиотека кодирования : x264 core 157 r2969 d4099dd
Настройки программы : cabac=1 / ref=12 / deblock=1:-1:-1 / analyse=0x3:0x133 / me=umh / subme=11 / psy=1 / psy_rd=1.00:0.15 / mixed_ref=1 / me_range=64 / chroma_me=1 / trellis=2 / 8x8dct=1 / cqm=0 / deadzone=21,11 / fast_pskip=0 / chroma_qp_offset=-3 / threads=6 / lookahead_threads=1 / sliced_threads=0 / nr=0 / decimate=0 / interlaced=0 / bluray_compat=0 / constrained_intra=0 / bframes=16 / b_pyramid=2 / b_adapt=2 / b_bias=0 / direct=3 / weightb=1 / open_gop=0 / weightp=2 / keyint=240 / keyint_min=23 / scenecut=40 / intra_refresh=0 / rc_lookahead=60 / rc=2pass / mbtree=0 / bitrate=663 / ratetol=1.0 / qcomp=0.60 / qpmin=0 / qpmax=69 / qpstep=4 / cplxblur=20.0 / qblur=0.5 / vbv_maxrate=50000 / vbv_bufsize=62500 / nal_hrd=none / filler=0 / ip_ratio=1.40 / pb_ratio=1.30 / aq=1:1.00
Язык : English
Default : Да
Forced : Нет
Аудио
Идентификатор : 2
Формат : AC-3
Формат/Информация : Audio Coding 3
Коммерческое название : Dolby Digital
Идентификатор кодека : A_AC3
Продолжительность : 1 ч. 54 м.
Вид битрейта : Постоянный
Битрейт : 192 Кбит/сек
Каналы : 2 канала
Channel layout : L R
Частота : 48,0 КГц
Частота кадров : 31,250 кадров/сек (1536 SPF)
Метод сжатия : С потерями
Размер потока : 157 Мбайт (22%)
Заголовок : Многоголосый ''Неизвестно'' (AC-3, Постоянный, 192 Кбит/сек, 2 канала, 48,0 КГц)
Язык : Russian
Service kind : Complete Main
Default : Да
Forced : Нет
Меню
00:00:00.000 : en:Studio Logos
00:00:34.000 : en:Opening Credits
00:05:35.000 : en:Sammael grants no clemency to Baliel's plea, warehouse
00:08:20.000 : en:Gabriel observes the city & the people living there, alley
00:09:32.000 : en:Michael warns Gabriel of the strong enemy & advices to proceed with caution, Michael's apartment
00:11:08.000 : en:Gabriel gets visions, alley
00:14:51.000 : en:Gabriel's sense of Arch drives him to the deserted bus where he meets Uriel, bus
00:20:54.000 : en:Gabriel awakens Uriel's silent energies, bus
00:22:25.000 : en:Sammael commands Asmodeus to stay patient, Sammael's lair
00:24:45.000 : en:Uriel tells Gabriel about the fallen's stark sense, bus
00:27:00.000 : en:Uriel tells Gabiel about other Archangels & their fate, bus
00:30:59.000 : en:Gabriel inquires about Jade, Fun House
00:34:43.000 : en:Balan tries to violate Jade, Fun House & street
00:39:11.000 : en:Gabriel heals Jade's wounds, hotel room
00:44:44.000 : en:Sammael asks Lilith to wait for Gabriel's power to diminish, Sammael's lair
00:46:43.000 : en:Jade expresses her dubiety about getting rid of the darkness in the city, balcony
00:47:58.000 : en:Gabriel loses his temper upon seeing Ithuriel abandon his mission, soup kitchen
00:52:31.000 : en:Gabriel heals Raphael's wounds, soup kitchen's basement
00:57:39.000 : en:Sammael & Asmodeus are content to see Gabriel commence his plan, Fun House
00:59:26.000 : en:Gabriel is perplexed at Sammael's placidity in the war, soup kitchen's basement
01:01:22.000 : en:Gabriel enters Ahriman's threshold, warehouse
01:05:37.000 : en:Sammael declares the execution of his plan, club
01:07:18.000 : en:Gabriel sketches Amitiel's picture, Michael's home
01:09:50.000 : en:The soup kitchen explosion claims Ithuriel's life, soup kitchen
01:13:02.000 : en:The Fallen make their move toward getting rid of Urie & Raphael, multiple locations
01:16:03.000 : en:Gabriel is filled with remorse upon finding the dead bodies of his comrades, alley
01:17:21.000 : en:Gabriel makes a vicious attack on Asmodeus & heals Glee, Fun House
01:23:31.000 : en:Jade & Gabriel make love, street & Michael's home
01:27:49.000 : en:Gabriel buys drugs from Max, alley
01:28:47.000 : en:Gabriel injects Lilith with the drugs, club
01:31:28.000 : en:Gabriel's callous chase suddenly comes to a halt, rooftop
01:38:02.000 : en:Sammael easily overpowers Gabriel, rooftop
01:43:15.000 : en:Sammael makes a final act of kindness, rooftop
01:50:24.000 : en:End Credits
Скриншоты:
Если надо вернуться на сидирование раздачи пишите в ЛС.
По вопросам изготовления рипов под заказ обращайтесь в ЛС.
[Профиль] [ЛС]
Показать сообщения:    
Ответить на тему

Текущее время: 24-Май 09:40

Часовой пояс: UTC + 3



Вы не можете начинать темы
Вы не можете отвечать на сообщения
Вы не можете редактировать свои сообщения
Вы не можете удалять свои сообщения
Вы не можете голосовать в опросах
Вы не можете прикреплять файлы к сообщениям
Вы не можете скачивать файлы