Любовный напиток №9 / Love Potion No. 9 (1992) WEB-DLRip [H.264]

Ответить на тему
 
Автор Сообщение

MAG3131 ®

Пол: Мужской

Стаж: 52 года

Сообщений: 108

Откуда: Санкт-Петербург

Создавать темы 15-Сен-2020 03:08

[Цитировать]

Любовный напиток №9 / Love Potion No. 9 (1992) WEB-DLRip [H.264] - Производство: США / 20th Century Fox Film Corporation, Penta Pictures
Жанр: фэнтези, мелодрама, комедия
Режиссер: Дейл Лонер
Продюсер: Дейл Лонер, Джеффри Даунер, Томас М. Хэммел
Актеры: Тейт Донован, Сандра Буллок, Мэри Мара, Дэйл Мидкифф, Хиллари Бэйли Смит, Энн Бэнкрофт, Дилан Бейкер, Блейк Кларк, Брюс МакКарти, Ребекка Стааб
Описание:
В 90-е года в мире науки стало возможно все - или почти все. В том числе и мечта всех одиноких мужчин и женщин - любовный эликсир, во власти которого заставить всех представителей противоположного пола мгновенно и безумно в тебя влюбиться.
Молодые ученые Пол и Диана, одинокие, застенчивые и увлеченные только своей работой, изобрели эликсир любви. И, после успешных испытаний на животных, приняв «на грудь» божественный эликсир, пустились в легкомысленные амурные приключения.

Возраст: 16+ (зрителям, достигшим 16 лет)
Рейтинг MPAA: PG-13 (детям до 13 лет просмотр нежелателен)
Релиз от: MAG3131
Продолжительность: 01:32:37
Качество видео: WEB-DLRip
Перевод: Многоголосый
Субтитры: Отсутствуют
Видео: AVC/H.264, 720x408, ~1725 kbps, 25 fps
Аудио #1: AC3, 2 ch, 192 kbps (Русский - Многоголосый ''Студия ''Иннес'''')
Аудио #2: AC3, 2 ch, 192 kbps (Русский - Многоголосый ''Фильм-экспорт'')

MediaInfo

Общее
Уникальный идентификатор : 332222596107268009425556479831588198368 (0xF9EFBE9E669F0F3EA47CB2AD9B1FD7E0)
Полное имя : Любовный напиток №9 (Love Potion №9).mkv
Формат : Matroska
Версия формата : Version 4
Размер файла : 1,37 Гбайт
Продолжительность : 1 ч. 32 м.
Общий поток : 2 111 Кбит/сек
Дата кодирования : UTC 2020-09-13 23:00:59
Программа кодирования : mkvmerge v50.0.0 ('Awakenings') 64-bit
Библиотека кодирования : libebml v1.4.0 + libmatroska v1.6.2
Attachments : Лог кодирования.log
Видео
Идентификатор : 1
Формат : AVC
Формат/Информация : Advanced Video Codec
Профиль формата : High@L4.1
Настройки формата : CABAC / 12 Ref Frames
Параметр CABAC формата : Да
Параметр RefFrames формата : 12 кадров
Идентификатор кодека : V_MPEG4/ISO/AVC
Продолжительность : 1 ч. 32 м.
Битрейт : 1 725 Кбит/сек
Ширина : 720 пикселей
Высота : 408 пикселей
Соотношение сторон : 16:9
Режим частоты кадров : Постоянный
Частота кадров : 25,000 кадров/сек
Цветовое пространство : YUV
Субдискретизация насыщенности : 4:2:0
Битовая глубина : 8 бит
Тип развёртки : Прогрессивная
Бит/(Пиксели*Кадры) : 0.235
Размер потока : 1,09 Гбайт (80%)
Заголовок : Любовный напиток №9 (Love Potion №9)
Библиотека кодирования : x264 core 157 r2969 d4099dd
Настройки программы : cabac=1 / ref=12 / deblock=1:-1:-1 / analyse=0x3:0x133 / me=umh / subme=11 / psy=1 / psy_rd=1.00:0.15 / mixed_ref=1 / me_range=64 / chroma_me=1 / trellis=2 / 8x8dct=1 / cqm=0 / deadzone=21,11 / fast_pskip=0 / chroma_qp_offset=-3 / threads=6 / lookahead_threads=1 / sliced_threads=0 / nr=0 / decimate=0 / interlaced=0 / bluray_compat=0 / constrained_intra=0 / bframes=16 / b_pyramid=2 / b_adapt=2 / b_bias=0 / direct=3 / weightb=1 / open_gop=0 / weightp=2 / keyint=250 / keyint_min=25 / scenecut=40 / intra_refresh=0 / rc_lookahead=60 / rc=2pass / mbtree=0 / bitrate=1725 / ratetol=1.0 / qcomp=0.60 / qpmin=0 / qpmax=69 / qpstep=4 / cplxblur=20.0 / qblur=0.5 / vbv_maxrate=50000 / vbv_bufsize=62500 / nal_hrd=none / filler=0 / ip_ratio=1.40 / pb_ratio=1.30 / aq=1:1.00
Язык : English
Default : Да
Forced : Нет
Аудио #1
Идентификатор : 2
Формат : AC-3
Формат/Информация : Audio Coding 3
Коммерческое название : Dolby Digital
Идентификатор кодека : A_AC3
Продолжительность : 1 ч. 32 м.
Вид битрейта : Постоянный
Битрейт : 192 Кбит/сек
Каналы : 2 канала
Channel layout : L R
Частота : 48,0 КГц
Частота кадров : 31,250 кадров/сек (1536 SPF)
Метод сжатия : С потерями
Размер потока : 127 Мбайт (9%)
Заголовок : Многоголосый ''Студия ''Иннес'''' (AC-3, Постоянный, 192 Кбит/сек, 2 канала, 48,0 КГц)
Язык : Russian
Service kind : Complete Main
Default : Да
Forced : Нет
Аудио #2
Идентификатор : 3
Формат : AC-3
Формат/Информация : Audio Coding 3
Коммерческое название : Dolby Digital
Идентификатор кодека : A_AC3
Продолжительность : 1 ч. 32 м.
Вид битрейта : Постоянный
Битрейт : 192 Кбит/сек
Каналы : 2 канала
Channel layout : L R
Частота : 48,0 КГц
Частота кадров : 31,250 кадров/сек (1536 SPF)
Метод сжатия : С потерями
Размер потока : 127 Мбайт (9%)
Заголовок : Многоголосый ''Фильм-экспорт'' (AC-3, Постоянный, 192 Кбит/сек, 2 канала, 48,0 КГц)
Язык : Russian
Service kind : Complete Main
Default : Нет
Forced : Нет
Меню
00:00:00.000 : en:Chapter 01
00:02:39.534 : en:Chapter 02
00:06:08.168 : en:Chapter 03
00:13:15.335 : en:Chapter 04
00:20:02.002 : en:Chapter 05
00:21:42.669 : en:Chapter 06
00:25:47.702 : en:Chapter 07
00:30:17.835 : en:Chapter 08
00:35:12.669 : en:Chapter 09
00:37:57.169 : en:Chapter 10
00:42:25.336 : en:Chapter 11
00:47:14.870 : en:Chapter 12
00:50:39.003 : en:Chapter 13
00:54:19.337 : en:Chapter 14
00:58:51.637 : en:Chapter 15
01:02:42.137 : en:Chapter 16
01:05:58.637 : en:Chapter 17
01:08:39.804 : en:Chapter 18
01:10:18.871 : en:Chapter 19
01:14:22.038 : en:Chapter 20
01:18:48.538 : en:Chapter 21
01:23:34.005 : en:Chapter 22
01:27:48.038 : en:Chapter 23
01:30:59.672 : en:Chapter 24
01:36:04.139 : en:Chapter 25
Скриншоты:
Если надо вернуться на сидирование раздачи пишите в ЛС.
По вопросам изготовления рипов под заказ обращайтесь в ЛС.
[Профиль] [ЛС]
Показать сообщения:    
Ответить на тему

Текущее время: 24-Май 09:58

Часовой пояс: UTC + 3



Вы не можете начинать темы
Вы не можете отвечать на сообщения
Вы не можете редактировать свои сообщения
Вы не можете удалять свои сообщения
Вы не можете голосовать в опросах
Вы не можете прикреплять файлы к сообщениям
Вы не можете скачивать файлы