Высшая лига 3 / Major League: Back to the Minors (1998) BDRip [H.264]

Ответить на тему
 
Автор Сообщение

MAG3131 ®

Пол: Мужской

Стаж: 52 года

Сообщений: 108

Откуда: Санкт-Петербург

Создавать темы 16-Сен-2020 00:52

[Цитировать]

Высшая лига 3 / Major League: Back to the Minors (1998) BDRip [H.264] - Производство: США / Morgan Creek Productions, Warner Brothers
Жанр: комедия, спорт
Режиссер: Джон Уоррен
Продюсер: Джеймс Дж. Робинсон, Гари Барбер, Майкл И. Рахмил
Актеры: Скотт Бакула, Корбин Бернсен, Деннис Хейсбёрт, Такааки Исибаси, Дженсен Даггетт, Эрик Браскоттер, Уолтон Гоггинс, Тед МакГинли, Кенни Джонсон, Джадсон Миллс
Описание:
Наш старый знакомый, Роджер Дорн, нанял Гаса , чтобы тот «поднял» захудалую команду «Базз» из Южной Каролины, которая принадлежит Дорну.
Бывалый ветеран Кантрелл принимает вызов и решает сделать из компании неудачников – компанию чемпионов! Ведь, как известно, «игра не окончена, пока не запоёт толстуха»!

Возраст: 12+ (зрителям, достигшим 12 лет)
Рейтинг MPAA: PG-13 (детям до 13 лет просмотр нежелателен)
Релиз от: MAG3131
Продолжительность: 01:39:37
Качество видео: BDRip
Перевод: Двухголосый
Субтитры: Отсутствуют
Видео: AVC/H.264, 720x392, ~1769 kbps, 23,976 fps
Аудио: AC3, 2 ch, 192 kbps (Русский - Двухголосый ''Премьер Видео Фильм'')

MediaInfo

Общее
Уникальный идентификатор : 258205805861631858065819148146154174342 (0xC240A11BECDCC8BC9513C0FD21947786)
Полное имя : Высшая Лига - 03 ''Назад в низшую'' (Major League - 03 ''Back To The Minors'').mkv
Формат : Matroska
Версия формата : Version 4
Размер файла : 1,37 Гбайт
Продолжительность : 1 ч. 39 м.
Общий поток : 1 962 Кбит/сек
Дата кодирования : UTC 2020-09-13 23:37:29
Программа кодирования : mkvmerge v50.0.0 ('Awakenings') 64-bit
Библиотека кодирования : libebml v1.4.0 + libmatroska v1.6.2
Attachments : Лог кодирования.log
Видео
Идентификатор : 1
Формат : AVC
Формат/Информация : Advanced Video Codec
Профиль формата : High@L4.1
Настройки формата : CABAC / 12 Ref Frames
Параметр CABAC формата : Да
Параметр RefFrames формата : 12 кадров
Идентификатор кодека : V_MPEG4/ISO/AVC
Продолжительность : 1 ч. 39 м.
Битрейт : 1 769 Кбит/сек
Ширина : 720 пикселей
Высота : 392 пикселя
Соотношение сторон : 1,85:1
Режим частоты кадров : Постоянный
Частота кадров : 23,976 (24000/1001) кадра/сек
Цветовое пространство : YUV
Субдискретизация насыщенности : 4:2:0
Битовая глубина : 8 бит
Тип развёртки : Прогрессивная
Бит/(Пиксели*Кадры) : 0.261
Размер потока : 1,20 Гбайт (88%)
Заголовок : Высшая Лига - 03 ''Назад в низшую'' (Major League - 03 ''Back To The Minors'')
Библиотека кодирования : x264 core 157 r2969 d4099dd
Настройки программы : cabac=1 / ref=12 / deblock=1:-1:-1 / analyse=0x3:0x133 / me=umh / subme=11 / psy=1 / psy_rd=1.00:0.15 / mixed_ref=1 / me_range=64 / chroma_me=1 / trellis=2 / 8x8dct=1 / cqm=0 / deadzone=21,11 / fast_pskip=0 / chroma_qp_offset=-3 / threads=6 / lookahead_threads=1 / sliced_threads=0 / nr=0 / decimate=0 / interlaced=0 / bluray_compat=0 / constrained_intra=0 / bframes=16 / b_pyramid=2 / b_adapt=2 / b_bias=0 / direct=3 / weightb=1 / open_gop=0 / weightp=2 / keyint=240 / keyint_min=23 / scenecut=40 / intra_refresh=0 / rc_lookahead=60 / rc=2pass / mbtree=0 / bitrate=1769 / ratetol=1.0 / qcomp=0.60 / qpmin=0 / qpmax=69 / qpstep=4 / cplxblur=20.0 / qblur=0.5 / vbv_maxrate=50000 / vbv_bufsize=62500 / nal_hrd=none / filler=0 / ip_ratio=1.40 / pb_ratio=1.30 / aq=1:1.00
Язык : English
Default : Да
Forced : Нет
Аудио
Идентификатор : 2
Формат : AC-3
Формат/Информация : Audio Coding 3
Коммерческое название : Dolby Digital
Идентификатор кодека : A_AC3
Продолжительность : 1 ч. 39 м.
Вид битрейта : Постоянный
Битрейт : 192 Кбит/сек
Каналы : 2 канала
Channel layout : L R
Частота : 48,0 КГц
Частота кадров : 31,250 кадров/сек (1536 SPF)
Метод сжатия : С потерями
Размер потока : 137 Мбайт (10%)
Заголовок : Двухголосый ''Премьер Видео Фильм'' (AC-3, Постоянный, 192 Кбит/сек, 2 канала, 48,0 КГц)
Язык : Russian
Service kind : Complete Main
Default : Да
Forced : Нет
Меню
00:00:00.000 : :Глава 01
00:10:00.600 : :Глава 02
00:20:01.200 : :Глава 03
00:30:01.800 : :Глава 04
00:39:45.383 : :Глава 05
00:50:03.000 : :Глава 06
01:00:03.600 : :Глава 07
01:10:04.200 : :Глава 08
01:20:04.800 : :Глава 09
01:30:05.400 : :Глава 10
Скриншоты:
Если надо вернуться на сидирование раздачи пишите в ЛС.
По вопросам изготовления рипов под заказ обращайтесь в ЛС.
[Профиль] [ЛС]
Показать сообщения:    
Ответить на тему

Текущее время: 24-Май 08:40

Часовой пояс: UTC + 3



Вы не можете начинать темы
Вы не можете отвечать на сообщения
Вы не можете редактировать свои сообщения
Вы не можете удалять свои сообщения
Вы не можете голосовать в опросах
Вы не можете прикреплять файлы к сообщениям
Вы не можете скачивать файлы