Черная дыра / The Black Hole (1979) BDRip [H.264] [Corrected Version]

Ответить на тему
 
Автор Сообщение

MAG3131 ®

Пол: Мужской

Стаж: 52 года

Сообщений: 108

Откуда: Санкт-Петербург

Создавать темы 17-Сен-2020 22:18

[Цитировать]

Черная дыра / The Black Hole (1979) BDRip [H.264] [Corrected Version] - Производство: США / Walt Disney Productions
Жанр: фантастика, боевик
Режиссер: Гэри Нельсон
Продюсер: Рон Миллер
Актеры: Максимилиан Шелл, Энтони Перкинс, Роберт Форстер, Джозеф Боттомс, Ивет Мимьё, Эрнест Боргнайн, Том Маклафлин, Родди МакДауэлл, Гэри Нельсон, Слим Пикенс
Описание:
Далекое будущее. Космический корабль «Паломино», пролетая мимо «черной дыры», обнаружил на орбите пропавший без вести 12 лет назад звездолет «Лебедь». Не смотря на угрозу быть навеки пленными чудовищным полем притяжения «дыры», экипаж «Паломино» принимает роковое решение взойти на борт межзвездного «летучего голландца» и разгадать тайну его исчезновения.
Что же увидели астронавты: корабль населен только роботами, а единственным человеком оказался доктор Хайнс Рейнхардт, гениальный, но явно сумасшедший ученый, который одержим идеей проникновения в «черную дыру» и готовый поставить на карту и свою и чужие жизни, лишь бы осуществить свою безумную мечту о прыжке в бездну.

Возраст: 16+ (зрителям, достигшим 16 лет)
Рейтинг MPAA: PG (рекомендуется присутствие родителей)
Релиз от: MAG3131
Продолжительность: 01:37:45
Качество видео: BDRip
Перевод: Многоголосый
Субтитры: Отсутствуют
Видео: AVC/H.264, 720x306, ~1807 kbps, 23,976 fps
Аудио: AC3, 2 ch, 192 kbps (Русский - Многоголосый ''R5'')

MediaInfo

Общее
Уникальный идентификатор : 235314218059121266086267574435457009240 (0xB107DEB11CA4A7EBBDB63F44A73C0658)
Полное имя : Черная дыра (Исправленная версия) (1979 год) (The Black Hole) (Corrected Version) (1979 Year).mkv
Формат : Matroska
Версия формата : Version 4
Размер файла : 1,37 Гбайт
Продолжительность : 1 ч. 37 м.
Общий поток : 2 000 Кбит/сек
Дата кодирования : UTC 2020-09-13 22:29:52
Программа кодирования : mkvmerge v50.0.0 ('Awakenings') 64-bit
Библиотека кодирования : libebml v1.4.0 + libmatroska v1.6.2
Attachments : Лог кодирования.log
Видео
Идентификатор : 1
Формат : AVC
Формат/Информация : Advanced Video Codec
Профиль формата : High@L4.1
Настройки формата : CABAC / 12 Ref Frames
Параметр CABAC формата : Да
Параметр RefFrames формата : 12 кадров
Идентификатор кодека : V_MPEG4/ISO/AVC
Продолжительность : 1 ч. 37 м.
Битрейт : 1 807 Кбит/сек
Ширина : 720 пикселей
Высота : 306 пикселей
Соотношение сторон : 2,35:1
Режим частоты кадров : Постоянный
Частота кадров : 23,976 (24000/1001) кадра/сек
Цветовое пространство : YUV
Субдискретизация насыщенности : 4:2:0
Битовая глубина : 8 бит
Тип развёртки : Прогрессивная
Бит/(Пиксели*Кадры) : 0.342
Размер потока : 1,21 Гбайт (88%)
Заголовок : Черная дыра (Исправленная версия) (1979 год) (The Black Hole) (Corrected Version) (1979 Year)
Библиотека кодирования : x264 core 157 r2969 d4099dd
Настройки программы : cabac=1 / ref=12 / deblock=1:-1:-1 / analyse=0x3:0x133 / me=umh / subme=11 / psy=1 / psy_rd=1.00:0.15 / mixed_ref=1 / me_range=64 / chroma_me=1 / trellis=2 / 8x8dct=1 / cqm=0 / deadzone=21,11 / fast_pskip=0 / chroma_qp_offset=-3 / threads=6 / lookahead_threads=1 / sliced_threads=0 / nr=0 / decimate=0 / interlaced=0 / bluray_compat=0 / constrained_intra=0 / bframes=16 / b_pyramid=2 / b_adapt=2 / b_bias=0 / direct=3 / weightb=1 / open_gop=0 / weightp=2 / keyint=240 / keyint_min=23 / scenecut=40 / intra_refresh=0 / rc_lookahead=60 / rc=2pass / mbtree=0 / bitrate=1807 / ratetol=1.0 / qcomp=0.60 / qpmin=0 / qpmax=69 / qpstep=4 / cplxblur=20.0 / qblur=0.5 / vbv_maxrate=50000 / vbv_bufsize=62500 / nal_hrd=none / filler=0 / ip_ratio=1.40 / pb_ratio=1.30 / aq=1:1.00
Язык : English
Default : Да
Forced : Нет
Аудио
Идентификатор : 2
Формат : AC-3
Формат/Информация : Audio Coding 3
Коммерческое название : Dolby Digital
Идентификатор кодека : A_AC3
Продолжительность : 1 ч. 37 м.
Вид битрейта : Постоянный
Битрейт : 192 Кбит/сек
Каналы : 2 канала
Channel layout : L R
Частота : 48,0 КГц
Частота кадров : 31,250 кадров/сек (1536 SPF)
Метод сжатия : С потерями
Размер потока : 134 Мбайт (10%)
Заголовок : Многоголосый ''R5'' (AC-3, Постоянный, 192 Кбит/сек, 2 канала, 48,0 КГц)
Язык : Russian
Service kind : Complete Main
Default : Да
Forced : Нет
Меню
00:00:00.000 : :Глава 01
00:08:03.066 : :Глава 02
00:22:28.597 : :Глава 03
00:29:31.937 : :Глава 04
00:38:39.651 : :Глава 05
00:43:32.485 : :Глава 06
01:04:04.841 : :Глава 07
01:13:04.714 : :Глава 08
01:22:14.721 : :Глава 09
01:28:08.575 : :Глава 10
Скриншоты:
Если надо вернуться на сидирование раздачи пишите в ЛС.
По вопросам изготовления рипов под заказ обращайтесь в ЛС.
[Профиль] [ЛС]
Показать сообщения:    
Ответить на тему

Текущее время: 24-Май 09:31

Часовой пояс: UTC + 3



Вы не можете начинать темы
Вы не можете отвечать на сообщения
Вы не можете редактировать свои сообщения
Вы не можете удалять свои сообщения
Вы не можете голосовать в опросах
Вы не можете прикреплять файлы к сообщениям
Вы не можете скачивать файлы