Каффс / Kuffs (1991) BDRip [H.264]

Ответить на тему
 
Автор Сообщение

MAG3131 ®

Пол: Мужской

Стаж: 52 года

Сообщений: 108

Откуда: Санкт-Петербург

Создавать темы 18-Сен-2020 04:52

[Цитировать]

Каффс / Kuffs (1991) BDRip [H.264] - Производство: США / Beginner's Luck, Dino de Laurentiis Communications, EvansGideon
Жанр: боевик, комедия, криминал
Режиссер: Брюс А. Эванс
Продюсер: Рэйнольд Гидеон, Мэл Деллар, Лиза Фицджералд
Актеры: Кристиан Слэйтер, Милла Йовович, Рик Роман Во, Стив Холладей, Чад Рэндолл, Кларк Коулмэн, Леон Риппи, Крэйг Бентон, Эшли Джадд, Брюс Бокслайтнер
Описание:
У Джорджа Каффса, молодого парня из Сан-Франциско, куча проблем: безработица, безденежье, неожиданная беременность возлюбленной… Вся надежда на старшего брата — владельца охранного агентства, защищающего мелких предпринимателей от вымогателей и грабителей.
Но брат погибает от руки гангстера, и Джордж, унаследовав семейную «вотчину», сам становится патрульным. И начинает активную борьбу с бандитами и продажными полицейскими.

Возраст: 12+ (зрителям, достигшим 12 лет)
Рейтинг MPAA: PG-13 (детям до 13 лет просмотр нежелателен)
Релиз от: MAG3131
Продолжительность: 01:41:28
Качество видео: BDRip
Перевод: Двухголосый
Субтитры: Отсутствуют
Видео: AVC/H.264, 720x392, ~2313 kbps, 23,976 fps
Аудио #01: AC3, 2 ch, 192 kbps (Русский - Двухголосый ''SDI Media'')
Аудио #02: AC3, 2 ch, 192 kbps (Русский - Двухголосый ''НТВ+'')
Аудио #03: AC3, 2 ch, 192 kbps (Русский - Двухголосый ''СВ-Кадр / ТВ6'')

MediaInfo

Общее
Уникальный идентификатор : 144691077412274990136480664387168201931 (0x6CDA7CE4E0AB2C3A9C7E392973376CCB)
Полное имя : Каффс (Kuffs).mkv
Формат : Matroska
Версия формата : Version 4
Размер файла : 2,05 Гбайт
Продолжительность : 1 ч. 41 м.
Общий поток : 2 889 Кбит/сек
Дата кодирования : UTC 2020-09-17 21:05:25
Программа кодирования : mkvmerge v50.0.0 ('Awakenings') 64-bit
Библиотека кодирования : libebml v1.4.0 + libmatroska v1.6.2
Attachments : Лог кодирования.log
Видео
Идентификатор : 1
Формат : AVC
Формат/Информация : Advanced Video Codec
Профиль формата : High@L4.1
Настройки формата : CABAC / 12 Ref Frames
Параметр CABAC формата : Да
Параметр RefFrames формата : 12 кадров
Идентификатор кодека : V_MPEG4/ISO/AVC
Продолжительность : 1 ч. 41 м.
Битрейт : 2 313 Кбит/сек
Ширина : 720 пикселей
Высота : 392 пикселя
Соотношение сторон : 1,85:1
Режим частоты кадров : Постоянный
Частота кадров : 23,976 (24000/1001) кадра/сек
Цветовое пространство : YUV
Субдискретизация насыщенности : 4:2:0
Битовая глубина : 8 бит
Тип развёртки : Прогрессивная
Бит/(Пиксели*Кадры) : 0.342
Размер потока : 1,60 Гбайт (78%)
Заголовок : Каффс (Kuffs)
Библиотека кодирования : x264 core 157 r2969 d4099dd
Настройки программы : cabac=1 / ref=12 / deblock=1:-1:-1 / analyse=0x3:0x133 / me=umh / subme=11 / psy=1 / psy_rd=1.00:0.15 / mixed_ref=1 / me_range=64 / chroma_me=1 / trellis=2 / 8x8dct=1 / cqm=0 / deadzone=21,11 / fast_pskip=0 / chroma_qp_offset=-3 / threads=6 / lookahead_threads=1 / sliced_threads=0 / nr=0 / decimate=0 / interlaced=0 / bluray_compat=0 / constrained_intra=0 / bframes=16 / b_pyramid=2 / b_adapt=2 / b_bias=0 / direct=3 / weightb=1 / open_gop=0 / weightp=2 / keyint=240 / keyint_min=23 / scenecut=40 / intra_refresh=0 / rc_lookahead=60 / rc=2pass / mbtree=0 / bitrate=2313 / ratetol=1.0 / qcomp=0.60 / qpmin=0 / qpmax=69 / qpstep=4 / cplxblur=20.0 / qblur=0.5 / vbv_maxrate=50000 / vbv_bufsize=62500 / nal_hrd=none / filler=0 / ip_ratio=1.40 / pb_ratio=1.30 / aq=1:1.00
Язык : English
Default : Да
Forced : Нет
Аудио #1
Идентификатор : 2
Формат : AC-3
Формат/Информация : Audio Coding 3
Коммерческое название : Dolby Digital
Идентификатор кодека : A_AC3
Продолжительность : 1 ч. 41 м.
Вид битрейта : Постоянный
Битрейт : 192 Кбит/сек
Каналы : 2 канала
Channel layout : L R
Частота : 48,0 КГц
Частота кадров : 31,250 кадров/сек (1536 SPF)
Метод сжатия : С потерями
Размер потока : 139 Мбайт (7%)
Заголовок : Двухголосый ''SDI Media'' (AC-3, Постоянный, 192 Кбит/сек, 2 канала, 48,0 КГц)
Язык : Russian
Service kind : Complete Main
Default : Да
Forced : Нет
Аудио #2
Идентификатор : 3
Формат : AC-3
Формат/Информация : Audio Coding 3
Коммерческое название : Dolby Digital
Идентификатор кодека : A_AC3
Продолжительность : 1 ч. 41 м.
Вид битрейта : Постоянный
Битрейт : 192 Кбит/сек
Каналы : 2 канала
Channel layout : L R
Частота : 48,0 КГц
Частота кадров : 31,250 кадров/сек (1536 SPF)
Метод сжатия : С потерями
Размер потока : 139 Мбайт (7%)
Заголовок : Двухголосый ''НТВ+'' (AC-3, Постоянный, 192 Кбит/сек, 2 канала, 48,0 КГц)
Язык : Russian
Service kind : Complete Main
Default : Нет
Forced : Нет
Аудио #3
Идентификатор : 4
Формат : AC-3
Формат/Информация : Audio Coding 3
Коммерческое название : Dolby Digital
Идентификатор кодека : A_AC3
Продолжительность : 1 ч. 41 м.
Вид битрейта : Постоянный
Битрейт : 192 Кбит/сек
Каналы : 2 канала
Channel layout : L R
Частота : 48,0 КГц
Частота кадров : 31,250 кадров/сек (1536 SPF)
Метод сжатия : С потерями
Размер потока : 139 Мбайт (7%)
Заголовок : Двухголосый ''СВ-Кадр / ТВ6'' (AC-3, Постоянный, 192 Кбит/сек, 2 канала, 48,0 КГц)
Язык : Russian
Service kind : Complete Main
Default : Нет
Forced : Нет
Меню
00:00:00.000 : en:Chapter 01
00:07:46.090 : en:Chapter 02
00:16:09.593 : en:Chapter 03
00:22:36.646 : en:Chapter 04
00:30:41.840 : en:Chapter 05
00:37:16.234 : en:Chapter 06
00:47:12.162 : en:Chapter 07
00:54:42.904 : en:Chapter 08
01:08:56.465 : en:Chapter 09
01:18:20.278 : en:Chapter 10
01:28:33.391 : en:Chapter 11
01:37:54.952 : en:Chapter 12
01:41:26.205 : en:Chapter 13
Скриншоты:
Если надо вернуться на сидирование раздачи пишите в ЛС.
По вопросам изготовления рипов под заказ обращайтесь в ЛС.
[Профиль] [ЛС]
Показать сообщения:    
Ответить на тему

Текущее время: 24-Май 08:57

Часовой пояс: UTC + 3



Вы не можете начинать темы
Вы не можете отвечать на сообщения
Вы не можете редактировать свои сообщения
Вы не можете удалять свои сообщения
Вы не можете голосовать в опросах
Вы не можете прикреплять файлы к сообщениям
Вы не можете скачивать файлы