Король Ральф / King Ralph (1991) BDRip [H.264]

Ответить на тему
 
Автор Сообщение

MAG3131 ®

Пол: Мужской

Стаж: 52 года

Сообщений: 108

Откуда: Санкт-Петербург

Создавать темы 18-Сен-2020 06:16

[Цитировать]

Король Ральф / King Ralph (1991) BDRip [H.264] - Производство: США / JBRO, Mirage Enterprises, Universal Pictures
Жанр: мелодрама, комедия
Режиссер: Дэвид С. Уорд
Продюсер: Джек Бродский, Джули Бергман Сендер, Джон Комфорт
Актеры: Джон Гудман, Питер О’Тул, Джон Хёрт, Камилла Кодури, Ричард Гриффитс, Лесли Филлипс, Джеймс Виллерс, Джоэли Ричардсон, Ниал О’Брайэн, Джулиан Гловер
Описание:
К ужасу всей Великобритании, выясняется, что единственный наследник опустевшего престола - жирный любитель гамбургеров из Америки по имени Ральф, который совершенно не представляет, что это такое - быть настоящим королем.

Возраст: 16+ (зрителям, достигшим 16 лет)
Рейтинг MPAA: PG (рекомендуется присутствие родителей)
Релиз от: MAG3131
Продолжительность: 01:36:20
Качество видео: BDRip
Перевод: Многоголосый
Субтитры: Отсутствуют
Видео: AVC/H.264, 720x392, ~2274 kbps, 23,976 fps
Аудио #01: AC3, 2 ch, 192 kbps (Русский - Многоголосый ''R5'')
Аудио #02: AC3, 2 ch, 192 kbps (Русский - Многоголосый ''SDI Media'' с вставками многоголосого ''R5'')
Аудио #03: AC3, 2 ch, 192 kbps (Русский - Многоголосый ''Селена Интернешнл / ОРТ'')
Аудио #04: AC3, 2 ch, 192 kbps (Русский - Многоголосый ''СТС / ТНТ'')

MediaInfo

Общее
Уникальный идентификатор : 277195533253051442038217625131783370555 (0xD089EAF490463E725966AC62563D373B)
Полное имя : Король Ральф (King Ralph).mkv
Формат : Matroska
Версия формата : Version 4
Размер файла : 2,05 Гбайт
Продолжительность : 1 ч. 36 м.
Общий поток : 3 044 Кбит/сек
Дата кодирования : UTC 2020-09-14 20:59:48
Программа кодирования : mkvmerge v50.0.0 ('Awakenings') 64-bit
Библиотека кодирования : libebml v1.4.0 + libmatroska v1.6.2
Attachments : Лог кодирования.log
Видео
Идентификатор : 1
Формат : AVC
Формат/Информация : Advanced Video Codec
Профиль формата : High@L4.1
Настройки формата : CABAC / 12 Ref Frames
Параметр CABAC формата : Да
Параметр RefFrames формата : 12 кадров
Идентификатор кодека : V_MPEG4/ISO/AVC
Продолжительность : 1 ч. 36 м.
Битрейт : 2 274 Кбит/сек
Ширина : 720 пикселей
Высота : 392 пикселя
Соотношение сторон : 1,85:1
Режим частоты кадров : Постоянный
Частота кадров : 23,976 (24000/1001) кадра/сек
Цветовое пространство : YUV
Субдискретизация насыщенности : 4:2:0
Битовая глубина : 8 бит
Тип развёртки : Прогрессивная
Бит/(Пиксели*Кадры) : 0.336
Размер потока : 1,49 Гбайт (73%)
Заголовок : Король Ральф (King Ralph)
Библиотека кодирования : x264 core 157 r2969 d4099dd
Настройки программы : cabac=1 / ref=12 / deblock=1:-1:-1 / analyse=0x3:0x133 / me=umh / subme=11 / psy=1 / psy_rd=1.00:0.15 / mixed_ref=1 / me_range=64 / chroma_me=1 / trellis=2 / 8x8dct=1 / cqm=0 / deadzone=21,11 / fast_pskip=0 / chroma_qp_offset=-3 / threads=6 / lookahead_threads=1 / sliced_threads=0 / nr=0 / decimate=0 / interlaced=0 / bluray_compat=0 / constrained_intra=0 / bframes=16 / b_pyramid=2 / b_adapt=2 / b_bias=0 / direct=3 / weightb=1 / open_gop=0 / weightp=2 / keyint=240 / keyint_min=23 / scenecut=40 / intra_refresh=0 / rc_lookahead=60 / rc=2pass / mbtree=0 / bitrate=2274 / ratetol=1.0 / qcomp=0.60 / qpmin=0 / qpmax=69 / qpstep=4 / cplxblur=20.0 / qblur=0.5 / vbv_maxrate=50000 / vbv_bufsize=62500 / nal_hrd=none / filler=0 / ip_ratio=1.40 / pb_ratio=1.30 / aq=1:1.00
Язык : English
Default : Да
Forced : Нет
Аудио #1
Идентификатор : 2
Формат : AC-3
Формат/Информация : Audio Coding 3
Коммерческое название : Dolby Digital
Идентификатор кодека : A_AC3
Продолжительность : 1 ч. 36 м.
Вид битрейта : Постоянный
Битрейт : 192 Кбит/сек
Каналы : 2 канала
Channel layout : L R
Частота : 48,0 КГц
Частота кадров : 31,250 кадров/сек (1536 SPF)
Метод сжатия : С потерями
Размер потока : 132 Мбайт (6%)
Заголовок : Многоголосый ''R5'' (AC-3, Постоянный, 192 Кбит/сек, 2 канала, 48,0 КГц)
Язык : Russian
Service kind : Complete Main
Default : Да
Forced : Нет
Аудио #2
Идентификатор : 3
Формат : AC-3
Формат/Информация : Audio Coding 3
Коммерческое название : Dolby Digital
Идентификатор кодека : A_AC3
Продолжительность : 1 ч. 36 м.
Вид битрейта : Постоянный
Битрейт : 192 Кбит/сек
Каналы : 2 канала
Channel layout : L R
Частота : 48,0 КГц
Частота кадров : 31,250 кадров/сек (1536 SPF)
Метод сжатия : С потерями
Размер потока : 132 Мбайт (6%)
Заголовок : Многоголосый ''SDI Media'' с вставками многоголосого ''R5'' (AC-3, Постоянный, 192 Кбит/сек, 2 канала, 48,0 КГц)
Язык : Russian
Service kind : Complete Main
Default : Нет
Forced : Нет
Аудио #3
Идентификатор : 4
Формат : AC-3
Формат/Информация : Audio Coding 3
Коммерческое название : Dolby Digital
Идентификатор кодека : A_AC3
Продолжительность : 1 ч. 36 м.
Вид битрейта : Постоянный
Битрейт : 192 Кбит/сек
Каналы : 2 канала
Channel layout : L R
Частота : 48,0 КГц
Частота кадров : 31,250 кадров/сек (1536 SPF)
Метод сжатия : С потерями
Размер потока : 132 Мбайт (6%)
Заголовок : Многоголосый ''Селена Интернешнл / ОРТ'' (AC-3, Постоянный, 192 Кбит/сек, 2 канала, 48,0 КГц)
Язык : Russian
Service kind : Complete Main
Default : Нет
Forced : Нет
Аудио #4
Идентификатор : 5
Формат : AC-3
Формат/Информация : Audio Coding 3
Коммерческое название : Dolby Digital
Идентификатор кодека : A_AC3
Продолжительность : 1 ч. 36 м.
Вид битрейта : Постоянный
Битрейт : 192 Кбит/сек
Каналы : 2 канала
Channel layout : L R
Частота : 48,0 КГц
Частота кадров : 31,250 кадров/сек (1536 SPF)
Метод сжатия : С потерями
Размер потока : 132 Мбайт (6%)
Заголовок : Многоголосый ''СТС / ТНТ'' (AC-3, Постоянный, 192 Кбит/сек, 2 канала, 48,0 КГц)
Язык : Russian
Service kind : Complete Main
Default : Нет
Forced : Нет
Меню
00:00:00.000 : :Глава 01
00:08:28.007 : :Глава 02
00:16:26.067 : :Глава 03
00:23:08.304 : :Глава 04
00:30:57.896 : :Глава 05
00:38:19.047 : :Глава 06
00:46:08.724 : :Глава 07
00:53:48.266 : :Глава 08
01:01:16.797 : :Глава 09
01:13:15.349 : :Глава 10
01:22:32.654 : :Глава 11
01:32:37.551 : :Глава 12
Скриншоты:
Если надо вернуться на сидирование раздачи пишите в ЛС.
По вопросам изготовления рипов под заказ обращайтесь в ЛС.
[Профиль] [ЛС]
Показать сообщения:    
Ответить на тему

Текущее время: 24-Май 09:50

Часовой пояс: UTC + 3



Вы не можете начинать темы
Вы не можете отвечать на сообщения
Вы не можете редактировать свои сообщения
Вы не можете удалять свои сообщения
Вы не можете голосовать в опросах
Вы не можете прикреплять файлы к сообщениям
Вы не можете скачивать файлы