Дух мщения / The Wraith (1986) BDRip [H.264]

Ответить на тему
 
Автор Сообщение

MAG3131 ®

Пол: Мужской

Стаж: 52 года

Сообщений: 108

Откуда: Санкт-Петербург

Создавать темы 18-Сен-2020 07:02

[Цитировать]

Дух мщения / The Wraith (1986) BDRip [H.264] - Производство: США, Канада / Alliance Entertainment, New Century Entertainment Corporation, Turbo Productions
Жанр: ужасы, фантастика, боевик, триллер, мелодрама
Режиссер: Майк Марвин
Продюсер: Джон Кемень, Бак Хотон, Джеффри Судзин
Актеры: Чарли Шин, Ник Кассаветис, Шерилин Фенн, Рэнди Куэйд, Мэттью Бэрри, Дэвид Шерилл, Джэми Бозиан, Клинт Ховард, Гриффин О’Нил, Крис Нэш
Описание:
Банда подростков останавливают водителей и заставляют их участвовать в гонках, ставка в которых - машина, принадлежащая несчастным, попавшимся им на пути. Молодой парень, погибший от рук этих бандитов, возвращается с того света в виде призрака на черном гоночном автомобиле и начинает мстить за свою смерть, вызывая подонков на дуэль и убивая их одного за одним...

Возраст: 16+ (зрителям, достигшим 16 лет)
Рейтинг MPAA: PG-13 (детям до 13 лет просмотр нежелателен)
Релиз от: MAG3131
Продолжительность: 01:33:11
Качество видео: BDRip
Перевод: Двухголосый
Субтитры: Отсутствуют
Видео: AVC/H.264, 720x408, ~2569 kbps, 23,976 fps
Аудио #01: AC3, 2 ch, 192 kbps (Русский - Двухголосый ''Студия ''Велес'' / CP-Digital / R5'')
Аудио #02: AC3, 2 ch, 192 kbps (Русский - Двухголосый ''СВ-Кадр / ТВ6'')
Аудио #03: AC3, 2 ch, 192 kbps (Русский - Двухголосый ''ТВ3'')

MediaInfo

Общее
Уникальный идентификатор : 235356539662841443512017327705142943101 (0xB110054ED98E238850B40C1E5DB15D7D)
Полное имя : Дух мщения (The Wraith).mkv
Формат : Matroska
Версия формата : Version 4
Размер файла : 2,05 Гбайт
Продолжительность : 1 ч. 33 м.
Общий поток : 3 142 Кбит/сек
Дата кодирования : UTC 2020-09-17 21:24:40
Программа кодирования : mkvmerge v50.0.0 ('Awakenings') 64-bit
Библиотека кодирования : libebml v1.4.0 + libmatroska v1.6.2
Attachments : Лог кодирования.log
Видео
Идентификатор : 1
Формат : AVC
Формат/Информация : Advanced Video Codec
Профиль формата : High@L4.1
Настройки формата : CABAC / 12 Ref Frames
Параметр CABAC формата : Да
Параметр RefFrames формата : 12 кадров
Идентификатор кодека : V_MPEG4/ISO/AVC
Продолжительность : 1 ч. 33 м.
Битрейт : 2 569 Кбит/сек
Ширина : 720 пикселей
Высота : 408 пикселей
Соотношение сторон : 16:9
Режим частоты кадров : Постоянный
Частота кадров : 23,976 (24000/1001) кадра/сек
Цветовое пространство : YUV
Субдискретизация насыщенности : 4:2:0
Битовая глубина : 8 бит
Тип развёртки : Прогрессивная
Бит/(Пиксели*Кадры) : 0.365
Размер потока : 1,63 Гбайт (80%)
Заголовок : Дух мщения (The Wraith)
Библиотека кодирования : x264 core 157 r2969 d4099dd
Настройки программы : cabac=1 / ref=12 / deblock=1:-1:-1 / analyse=0x3:0x133 / me=umh / subme=11 / psy=1 / psy_rd=1.00:0.15 / mixed_ref=1 / me_range=64 / chroma_me=1 / trellis=2 / 8x8dct=1 / cqm=0 / deadzone=21,11 / fast_pskip=0 / chroma_qp_offset=-3 / threads=6 / lookahead_threads=1 / sliced_threads=0 / nr=0 / decimate=0 / interlaced=0 / bluray_compat=0 / constrained_intra=0 / bframes=16 / b_pyramid=2 / b_adapt=2 / b_bias=0 / direct=3 / weightb=1 / open_gop=0 / weightp=2 / keyint=240 / keyint_min=23 / scenecut=40 / intra_refresh=0 / rc_lookahead=60 / rc=2pass / mbtree=0 / bitrate=2569 / ratetol=1.0 / qcomp=0.60 / qpmin=0 / qpmax=69 / qpstep=4 / cplxblur=20.0 / qblur=0.5 / vbv_maxrate=50000 / vbv_bufsize=62500 / nal_hrd=none / filler=0 / ip_ratio=1.40 / pb_ratio=1.30 / aq=1:1.00
Язык : English
Default : Да
Forced : Нет
Аудио #1
Идентификатор : 2
Формат : AC-3
Формат/Информация : Audio Coding 3
Коммерческое название : Dolby Digital
Идентификатор кодека : A_AC3
Продолжительность : 1 ч. 33 м.
Вид битрейта : Постоянный
Битрейт : 192 Кбит/сек
Каналы : 2 канала
Channel layout : L R
Частота : 48,0 КГц
Частота кадров : 31,250 кадров/сек (1536 SPF)
Метод сжатия : С потерями
Размер потока : 128 Мбайт (6%)
Заголовок : Двухголосый ''Студия ''Велес'' / CP-Digital / R5'' (AC-3, Постоянный, 192 Кбит/сек, 2 канала, 48,0 КГц)
Язык : Russian
Service kind : Complete Main
Default : Да
Forced : Нет
Аудио #2
Идентификатор : 3
Формат : AC-3
Формат/Информация : Audio Coding 3
Коммерческое название : Dolby Digital
Идентификатор кодека : A_AC3
Продолжительность : 1 ч. 33 м.
Вид битрейта : Постоянный
Битрейт : 192 Кбит/сек
Каналы : 2 канала
Channel layout : L R
Частота : 48,0 КГц
Частота кадров : 31,250 кадров/сек (1536 SPF)
Метод сжатия : С потерями
Размер потока : 128 Мбайт (6%)
Заголовок : Двухголосый ''СВ-Кадр / ТВ6'' (AC-3, Постоянный, 192 Кбит/сек, 2 канала, 48,0 КГц)
Язык : Russian
Service kind : Complete Main
Default : Нет
Forced : Нет
Аудио #3
Идентификатор : 4
Формат : AC-3
Формат/Информация : Audio Coding 3
Коммерческое название : Dolby Digital
Идентификатор кодека : A_AC3
Продолжительность : 1 ч. 33 м.
Вид битрейта : Постоянный
Битрейт : 192 Кбит/сек
Каналы : 2 канала
Channel layout : L R
Частота : 48,0 КГц
Частота кадров : 31,250 кадров/сек (1536 SPF)
Метод сжатия : С потерями
Размер потока : 128 Мбайт (6%)
Заголовок : Двухголосый ''ТВ3' (AC-3, Постоянный, 192 Кбит/сек, 2 канала, 48,0 КГц)
Язык : Russian
Service kind : Complete Main
Default : Нет
Forced : Нет
Меню
00:00:00.000 : en:00:00:00.000
00:00:00.375 : en:00:00:00.375
00:17:38.391 : en:00:17:38.391
00:35:14.279 : en:00:35:14.279
00:51:39.263 : en:00:51:39.263
01:09:02.889 : en:01:09:02.889
01:24:47.916 : en:01:24:47.916
Скриншоты:
Если надо вернуться на сидирование раздачи пишите в ЛС.
По вопросам изготовления рипов под заказ обращайтесь в ЛС.
[Профиль] [ЛС]
Показать сообщения:    
Ответить на тему

Текущее время: 24-Май 08:27

Часовой пояс: UTC + 3



Вы не можете начинать темы
Вы не можете отвечать на сообщения
Вы не можете редактировать свои сообщения
Вы не можете удалять свои сообщения
Вы не можете голосовать в опросах
Вы не можете прикреплять файлы к сообщениям
Вы не можете скачивать файлы