Смоки и Бандит / Smokey and the Bandit (1977) BDRip [H.264]

Ответить на тему
 
Автор Сообщение

MAG3131 ®

Пол: Мужской

Стаж: 52 года

Сообщений: 108

Откуда: Санкт-Петербург

Создавать темы 25-Сен-2020 21:45

[Цитировать]

Смоки и Бандит / Smokey and the Bandit (1977) BDRip [H.264] - Производство: США / Rastar Pictures, Universal Pictures
Жанр: боевик, комедия
Режиссер: Хэл Нидэм
Продюсер: Морт Энгелберг, Роберт Л. Леви, Жуль Леви
Актеры: Берт Рейнолдс, Салли Филд, Джерри Рид, Майк Генри, Пол Уильямс, Пэт МакКормик, Элфи Уайз, Джордж Рейнольдс, Макон МакКалман, Линда МакКлюр
Описание:
Парочка водителей, Бандит и Снеговик, берутся перевезти грузовик контрабандного пива из Тексарканы в Атланту за 48 часов. Схема проста: пока Бандит отвлекает полицейских, Снеговик спокойно на грузовике едет за ним. В то же время шериф Бьюфорд Джастис решает во что бы то не стало поймать Бандита, так как невеста его сына сбежала со свадьбы и села к Бандиту в машину...

Возраст: 12+ (зрителям, достигшим 12 лет)
Рейтинг MPAA: PG (рекомендуется присутствие родителей)
Релиз от: MAG3131
Продолжительность: 01:35:50
Качество видео: BDRip
Перевод: Многоголосый
Субтитры: Отсутствуют
Видео: AVC/H.264, 720x392, ~2868 kbps, 23,976 fps
Аудио: AC3, 2 ch, 192 kbps (Русский - Многоголосый ''Blu-ray EUR'')

MediaInfo

Общее
Уникальный идентификатор : 218278585222464008269054173910315630510 (0xA436ED2543660870936280258188FFAE)
Полное имя : Смоки и Бандит - 01 (Smokey And The Bandit - 01).mkv
Формат : Matroska
Версия формата : Version 2
Размер файла : 2,05 Гбайт
Продолжительность : 1 ч. 35 м.
Общий поток : 3 061 Кбит/сек
Дата кодирования : UTC 2016-08-10 02:32:30
Программа кодирования : mkvmerge v3.4.0 ('Rapunzel') сборка от May 15 2010 09:38:20
Библиотека кодирования : libebml v0.8.0 + libmatroska v0.9.0
Attachments : Лог кодирования.log
Видео
Идентификатор : 1
Формат : AVC
Формат/Информация : Advanced Video Codec
Профиль формата : High@L4.1
Настройки формата : CABAC / 11 Ref Frames
Параметр CABAC формата : Да
Параметр RefFrames формата : 11 кадров
Идентификатор кодека : V_MPEG4/ISO/AVC
Продолжительность : 1 ч. 35 м.
Битрейт : 2 868 Кбит/сек
Ширина : 720 пикселей
Высота : 392 пикселя
Соотношение сторон : 1,85:1
Режим частоты кадров : Постоянный
Частота кадров : 23,976 (24000/1001) кадра/сек
Цветовое пространство : YUV
Субдискретизация насыщенности : 4:2:0
Битовая глубина : 8 бит
Тип развёртки : Прогрессивная
Бит/(Пиксели*Кадры) : 0.424
Размер потока : 1,88 Гбайт (92%)
Заголовок : Смоки и Бандит - 01 (Smokey And The Bandit - 01)
Библиотека кодирования : x264 core 148 r2638 7599210
Настройки программы : cabac=1 / ref=11 / deblock=1:-1:-1 / analyse=0x3:0x133 / me=umh / subme=11 / psy=1 / psy_rd=1.00:0.15 / mixed_ref=1 / me_range=64 / chroma_me=1 / trellis=2 / 8x8dct=1 / cqm=0 / deadzone=21,11 / fast_pskip=0 / chroma_qp_offset=-3 / threads=6 / lookahead_threads=1 / sliced_threads=0 / nr=0 / decimate=0 / interlaced=0 / bluray_compat=0 / constrained_intra=0 / bframes=16 / b_pyramid=2 / b_adapt=2 / b_bias=0 / direct=3 / weightb=1 / open_gop=0 / weightp=2 / keyint=240 / keyint_min=23 / scenecut=40 / intra_refresh=0 / rc_lookahead=60 / rc=2pass / mbtree=0 / bitrate=2868 / ratetol=1.0 / qcomp=0.60 / qpmin=0 / qpmax=69 / qpstep=4 / cplxblur=20.0 / qblur=0.5 / vbv_maxrate=50000 / vbv_bufsize=62500 / nal_hrd=none / filler=0 / ip_ratio=1.40 / pb_ratio=1.30 / aq=1:1.00
Язык : English
Default : Да
Forced : Нет
Аудио
Идентификатор : 2
Формат : AC-3
Формат/Информация : Audio Coding 3
Коммерческое название : Dolby Digital
Идентификатор кодека : A_AC3
Продолжительность : 1 ч. 35 м.
Вид битрейта : Постоянный
Битрейт : 192 Кбит/сек
Каналы : 2 канала
Channel layout : L R
Частота : 48,0 КГц
Частота кадров : 31,250 кадров/сек (1536 SPF)
Метод сжатия : С потерями
Размер потока : 132 Мбайт (6%)
Заголовок : Многоголосый ''Blu-ray EUR'' (AC-3, Постоянный, 192 Кбит/сек, 2 канала, 48,0 КГц)
Язык : Russian
Service kind : Complete Main
Default : Да
Forced : Нет
Меню
00:00:00.000 : en:00:00:00.000
00:04:56.922 : en:00:04:56.922
00:07:27.697 : en:00:07:27.697
00:18:01.914 : en:00:18:01.914
00:21:16.066 : en:00:21:16.066
00:23:55.809 : en:00:23:55.809
00:32:15.809 : en:00:32:15.809
00:41:09.050 : en:00:41:09.050
00:43:42.411 : en:00:43:42.411
00:53:48.892 : en:00:53:48.892
01:07:01.142 : en:01:07:01.142
01:12:06.447 : en:01:12:06.447
01:19:11.413 : en:01:19:11.413
01:24:39.616 : en:01:24:39.616
01:27:28.326 : en:01:27:28.326
01:32:17.157 : en:01:32:17.157
Скриншоты:
Если надо вернуться на сидирование раздачи пишите в ЛС.
По вопросам изготовления рипов под заказ обращайтесь в ЛС.


Последний раз редактировалось: MAG3131 (06 Мар 2022 18:35:42), всего редактировалось 1 раз
[Профиль] [ЛС]

Charhok

Пол: Мужской

Стаж: 6 месяца 9 дня

Сообщений: 1

Откуда: Россия

Создавать темы 17-Ноя-2021 04:50 (спустя 1 год 1 месяц)

[Цитировать]

Seeing deliverance after smokey and th bandit and was kind of weird.
Maybe this tragedy will herald the return of th tash we have all been waiting for.
[Профиль] [ЛС]
Показать сообщения:    
Ответить на тему

Текущее время: 24-Май 08:44

Часовой пояс: UTC + 3



Вы не можете начинать темы
Вы не можете отвечать на сообщения
Вы не можете редактировать свои сообщения
Вы не можете удалять свои сообщения
Вы не можете голосовать в опросах
Вы не можете прикреплять файлы к сообщениям
Вы не можете скачивать файлы