Смоки и Бандит 2 / Smokey and the Bandit 2 (1980) BDRip [H.264]

Ответить на тему
 
Автор Сообщение

MAG3131 ®

Пол: Мужской

Стаж: 52 года

Сообщений: 108

Откуда: Санкт-Петербург

Создавать темы 25-Сен-2020 22:59

[Цитировать]

Смоки и Бандит 2 / Smokey and the Bandit 2 (1980) BDRip [H.264] - Производство: США / Rastar Pictures, Universal Pictures
Жанр: боевик, комедия
Режиссер: Хэл Нидэм
Продюсер: Хэнк Мунджин, Питер Баррелл, Майкл А. Черубино
Актеры: Берт Рейнолдс, Джеки Глисон, Джерри Рид, Дом ДеЛуис, Салли Филд, Пол Уильямс, Пэт МакКормик, Дэвид Хаддлстон, Майк Генри, Джон Андерсон
Описание:
Продолжение комедии «Смоки и Бандит». В этом фильме бесшабашный водитель грузовика по прозвищу Бандит и его друзья решают заработать несколько сотен долларов доставкой необычного груза: им предстоит перевезти из Майами в Техас беременную слониху...

Возраст: 18+ (зрителям, достигшим 18 лет. запрещено для детей)
Рейтинг MPAA: PG (рекомендуется присутствие родителей)
Релиз от: MAG3131
Продолжительность: 01:40:41
Качество видео: BDRip
Перевод: Многоголосый
Субтитры: Отсутствуют
Видео: AVC/H.264, 720x392, ~3692 kbps, 23,976 fps
Аудио: AC3, 2 ch, 192 kbps (Русский - Многоголосый)

MediaInfo

Общее
Уникальный идентификатор : 124118304885614646805617165698639913258 (0x5D6050E58B862BCD4181FE322E30E12A)
Полное имя : Смоки и Бандит - 02 (Smokey And The Bandit - 02).mkv
Формат : Matroska
Версия формата : Version 2
Размер файла : 2,73 Гбайт
Продолжительность : 1 ч. 40 м.
Общий поток : 3 884 Кбит/сек
Дата кодирования : UTC 2018-09-17 14:30:27
Программа кодирования : mkvmerge v26.0.0 ('In The Game') 64-bit
Библиотека кодирования : libebml v1.3.6 + libmatroska v1.4.9
Attachments : Лог кодирования.log
Видео
Идентификатор : 1
Формат : AVC
Формат/Информация : Advanced Video Codec
Профиль формата : High@L4.1
Настройки формата : CABAC / 12 Ref Frames
Параметр CABAC формата : Да
Параметр RefFrames формата : 12 кадров
Идентификатор кодека : V_MPEG4/ISO/AVC
Продолжительность : 1 ч. 40 м.
Битрейт : 3 692 Кбит/сек
Ширина : 720 пикселей
Высота : 392 пикселя
Соотношение сторон : 1,85:1
Режим частоты кадров : Постоянный
Частота кадров : 23,976 (24000/1001) кадра/сек
Цветовое пространство : YUV
Субдискретизация насыщенности : 4:2:0
Битовая глубина : 8 бит
Тип развёртки : Прогрессивная
Бит/(Пиксели*Кадры) : 0.546
Размер потока : 2,54 Гбайт (93%)
Заголовок : Смоки и Бандит - 02 (Smokey And The Bandit - 02)
Библиотека кодирования : x264 core 155 r2901 7d0ff22
Настройки программы : cabac=1 / ref=12 / deblock=1:-1:-1 / analyse=0x3:0x133 / me=umh / subme=11 / psy=1 / psy_rd=1.00:0.15 / mixed_ref=1 / me_range=64 / chroma_me=1 / trellis=2 / 8x8dct=1 / cqm=0 / deadzone=21,11 / fast_pskip=0 / chroma_qp_offset=-3 / threads=6 / lookahead_threads=1 / sliced_threads=0 / nr=0 / decimate=0 / interlaced=0 / bluray_compat=0 / constrained_intra=0 / bframes=16 / b_pyramid=2 / b_adapt=2 / b_bias=0 / direct=3 / weightb=1 / open_gop=0 / weightp=2 / keyint=240 / keyint_min=23 / scenecut=40 / intra_refresh=0 / rc_lookahead=60 / rc=2pass / mbtree=0 / bitrate=3692 / ratetol=1.0 / qcomp=0.60 / qpmin=0 / qpmax=69 / qpstep=4 / cplxblur=20.0 / qblur=0.5 / vbv_maxrate=50000 / vbv_bufsize=62500 / nal_hrd=none / filler=0 / ip_ratio=1.40 / pb_ratio=1.30 / aq=1:1.00
Язык : English
Default : Да
Forced : Нет
Аудио
Идентификатор : 2
Формат : AC-3
Формат/Информация : Audio Coding 3
Коммерческое название : Dolby Digital
Идентификатор кодека : A_AC3
Продолжительность : 1 ч. 40 м.
Вид битрейта : Постоянный
Битрейт : 192 Кбит/сек
Каналы : 2 канала
Channel layout : L R
Частота : 48,0 КГц
Частота кадров : 31,250 кадров/сек (1536 SPF)
Метод сжатия : С потерями
Размер потока : 138 Мбайт (5%)
Заголовок : Многоголосый ''Неизвестно'' (AC-3, Постоянный, 192 Кбит/сек, 2 канала, 48,0 КГц)
Язык : Russian
Service kind : Complete Main
Default : Да
Forced : Нет
Меню
00:00:00.000 : :00:00:00.000
00:08:37.308 : :00:08:37.308
00:17:37.181 : :00:17:37.181
00:25:59.850 : :00:25:59.850
00:35:23.705 : :00:35:23.705
00:47:18.878 : :00:47:18.878
00:55:32.913 : :00:55:32.913
01:05:23.128 : :01:05:23.128
01:13:36.245 : :01:13:36.245
01:19:01.070 : :01:19:01.070
01:25:58.862 : :01:25:58.862
01:36:42.088 : :01:36:42.088
Скриншоты:
Если надо вернуться на сидирование раздачи пишите в ЛС.
По вопросам изготовления рипов под заказ обращайтесь в ЛС.
[Профиль] [ЛС]
Показать сообщения:    
Ответить на тему

Текущее время: 24-Май 09:37

Часовой пояс: UTC + 3



Вы не можете начинать темы
Вы не можете отвечать на сообщения
Вы не можете редактировать свои сообщения
Вы не можете удалять свои сообщения
Вы не можете голосовать в опросах
Вы не можете прикреплять файлы к сообщениям
Вы не можете скачивать файлы