Смоки и Бандит 3 / Smokey and the Bandit Part 3 (1983) BDRip [H.264]

Ответить на тему
 
Автор Сообщение

MAG3131 ®

Пол: Мужской

Стаж: 52 года

Сообщений: 108

Откуда: Санкт-Петербург

Создавать темы 25-Сен-2020 23:47

[Цитировать]

Смоки и Бандит 3 / Smokey and the Bandit Part 3 (1983) BDRip [H.264] - Производство: США / Universal Pictures
Жанр: комедия, криминал
Режиссер: Дик Лоури
Продюсер: Морт Энгелберг
Актеры: Джеки Глисон, Джерри Рид, Пол Уильямс, Пэт МакКормик, Майк Генри, Коллин Кэмп, Фэйт Минтон, Берт Рейнолдс, Шэрон Андерсон, Сильвия Арана
Описание:
Шериф Бьюфорд Джастис уходит на пенсию, но заскучав, он возвращается и на спор с братьями Бердетами берется провезти через несколько штатов чучело рыбы за определенное время. Выиграет - получает 250.000 долларов, проиграет - отдает свой значок. Одновременно братья нанимают Снеговика, чтобы он переодевшись в Бандита, помешал шерифу успеть вовремя...

Возраст: этот продукт не был классифицирован
Рейтинг MPAA: PG (рекомендуется присутствие родителей)
Релиз от: MAG3131
Продолжительность: 01:24:56
Качество видео: BDRip
Перевод: Многоголосый
Субтитры: Отсутствуют
Видео: AVC/H.264, 720x304, ~4413 kbps, 23,976 fps
Аудио: AC3, 2 ch, 192 kbps (Русский - Многоголосый)

MediaInfo

Общее
Уникальный идентификатор : 287682540207074797330457362355226687231 (0xD86DA451583324D675CF08E28DF436FF)
Полное имя : Смоки и Бандит - 03 (Smokey And The Bandit - 03).mkv
Формат : Matroska
Версия формата : Version 2
Размер файла : 2,73 Гбайт
Продолжительность : 1 ч. 24 м.
Общий поток : 4 605 Кбит/сек
Дата кодирования : UTC 2018-09-18 15:50:13
Программа кодирования : mkvmerge v26.0.0 ('In The Game') 64-bit
Библиотека кодирования : libebml v1.3.6 + libmatroska v1.4.9
Attachments : Лог кодирования.log
Видео
Идентификатор : 1
Формат : AVC
Формат/Информация : Advanced Video Codec
Профиль формата : High@L4.1
Настройки формата : CABAC / 12 Ref Frames
Параметр CABAC формата : Да
Параметр RefFrames формата : 12 кадров
Идентификатор кодека : V_MPEG4/ISO/AVC
Продолжительность : 1 ч. 24 м.
Битрейт : 4 413 Кбит/сек
Ширина : 720 пикселей
Высота : 304 пикселя
Соотношение сторон : 2,35:1
Режим частоты кадров : Постоянный
Частота кадров : 23,976 (24000/1001) кадра/сек
Цветовое пространство : YUV
Субдискретизация насыщенности : 4:2:0
Битовая глубина : 8 бит
Тип развёртки : Прогрессивная
Бит/(Пиксели*Кадры) : 0.841
Размер потока : 2,56 Гбайт (94%)
Заголовок : Смоки и Бандит - 03 (Smokey And The Bandit - 03)
Библиотека кодирования : x264 core 155 r2901 7d0ff22
Настройки программы : cabac=1 / ref=12 / deblock=1:-1:-1 / analyse=0x3:0x133 / me=umh / subme=11 / psy=1 / psy_rd=1.00:0.15 / mixed_ref=1 / me_range=64 / chroma_me=1 / trellis=2 / 8x8dct=1 / cqm=0 / deadzone=21,11 / fast_pskip=0 / chroma_qp_offset=-3 / threads=6 / lookahead_threads=1 / sliced_threads=0 / nr=0 / decimate=0 / interlaced=0 / bluray_compat=0 / constrained_intra=0 / bframes=16 / b_pyramid=2 / b_adapt=2 / b_bias=0 / direct=3 / weightb=1 / open_gop=0 / weightp=2 / keyint=240 / keyint_min=23 / scenecut=40 / intra_refresh=0 / rc_lookahead=60 / rc=2pass / mbtree=0 / bitrate=4413 / ratetol=1.0 / qcomp=0.60 / qpmin=0 / qpmax=69 / qpstep=4 / cplxblur=20.0 / qblur=0.5 / vbv_maxrate=50000 / vbv_bufsize=62500 / nal_hrd=none / filler=0 / ip_ratio=1.40 / pb_ratio=1.30 / aq=1:1.00
Язык : English
Default : Да
Forced : Нет
Аудио
Идентификатор : 2
Формат : AC-3
Формат/Информация : Audio Coding 3
Коммерческое название : Dolby Digital
Идентификатор кодека : A_AC3
Продолжительность : 1 ч. 24 м.
Вид битрейта : Постоянный
Битрейт : 192 Кбит/сек
Каналы : 2 канала
Channel layout : L R
Частота : 48,0 КГц
Частота кадров : 31,250 кадров/сек (1536 SPF)
Метод сжатия : С потерями
Размер потока : 117 Мбайт (4%)
Заголовок : Многоголосый ''Неизвестно'' (AC-3, Постоянный, 192 Кбит/сек, 2 канала, 48,0 КГц, 16 бит)
Язык : Russian
Service kind : Complete Main
Default : Да
Forced : Нет
Меню
00:00:00.000 : :00:00:00.000
00:09:46.294 : :00:09:46.294
00:15:26.092 : :00:15:26.092
00:24:14.161 : :00:24:14.161
00:29:59.172 : :00:29:59.172
00:38:11.331 : :00:38:11.331
00:45:24.847 : :00:45:24.847
00:50:54.510 : :00:50:54.510
00:55:58.522 : :00:55:58.522
01:03:05.365 : :01:03:05.365
01:09:26.871 : :01:09:26.871
01:21:37.768 : :01:21:37.768
Скриншоты:
Если надо вернуться на сидирование раздачи пишите в ЛС.
По вопросам изготовления рипов под заказ обращайтесь в ЛС.
[Профиль] [ЛС]
Показать сообщения:    
Ответить на тему

Текущее время: 24-Май 08:47

Часовой пояс: UTC + 3



Вы не можете начинать темы
Вы не можете отвечать на сообщения
Вы не можете редактировать свои сообщения
Вы не можете удалять свои сообщения
Вы не можете голосовать в опросах
Вы не можете прикреплять файлы к сообщениям
Вы не можете скачивать файлы