Снова в школу / Back to School (1986) BDRip [H.264]

Ответить на тему
 
Автор Сообщение

MAG3131 ®

Пол: Мужской

Стаж: 52 года

Сообщений: 108

Откуда: Санкт-Петербург

Создавать темы 05-Окт-2020 21:22

[Цитировать]

Снова в школу / Back to School (1986) BDRip [H.264] - Производство: США / Orion Pictures, Paper Clip Productions
Жанр: комедия
Режиссер: Алан Меттер
Продюсер: Чак Рассел, Эстель Эндлер, Майкл Эндлер
Актеры: Родни Дейнджерфилд, Сэлли Келлермен, Берт Янг, Кит Гордон, Роберт Дауни мл., Пэкстон Уайтхед, Терри Фаррелл, М. Эммет Уолш, Эдриенн Барбо, Уильям Забка
Описание:
57-летний миллионер Торнтон Мелон, владелец сети магазинов «Большой и толстый» в результате неожиданного визита к сыну выясняет, что письма Джейсона из колледжа о том, что он входит в число самых одаренных студентов, успешно выступает в команде прыгунов в воду и занимает мысли всех девушек, на самом деле всего лишь выдумка. Но Торнтон так этого не оставит!
Его бизнес будет процветать и без него, а вот сыном необходимо заняться самому. Для чего он и поступает в колледж в качестве студента. Правда, у него нет аттестата об окончании средней школы, зато есть возможность выделить кругленькую сумму для строительства новой школы бизнеса. Великовозрастный и крупногабаритный студент немедленно принимается за дело.

Возраст: 16+ (зрителям, достигшим 16 лет)
Рейтинг MPAA: PG-13 (детям до 13 лет просмотр нежелателен)
Релиз от: MAG3131
Продолжительность: 01:36:37
Качество видео: BDRip
Перевод: Дублированный
Субтитры: Отсутствуют
Видео: AVC/H.264, 720x392, ~2843 kbps, 23,976 fps
Аудио: AC3, 2 ch, 192 kbps (Русский - Дублированный ''Варус Видео'')

MediaInfo

Общее
Уникальный идентификатор : 277251437008641493942124162600940511471 (0xD094AF3928CF3CE13351AD3E988AA0EF)
Полное имя : Снова в школу (Back To School).mkv
Формат : Matroska
Версия формата : Version 4
Размер файла : 2,05 Гбайт
Продолжительность : 1 ч. 36 м.
Общий поток : 3 035 Кбит/сек
Дата кодирования : UTC 2020-10-04 00:15:03
Программа кодирования : mkvmerge v50.0.0 ('Awakenings') 64-bit
Библиотека кодирования : libebml v1.4.0 + libmatroska v1.6.2
Attachments : Лог кодирования.log
Видео
Идентификатор : 1
Формат : AVC
Формат/Информация : Advanced Video Codec
Профиль формата : High@L4.1
Настройки формата : CABAC / 11 Ref Frames
Параметр CABAC формата : Да
Параметр RefFrames формата : 11 кадров
Идентификатор кодека : V_MPEG4/ISO/AVC
Продолжительность : 1 ч. 36 м.
Битрейт : 2 843 Кбит/сек
Ширина : 720 пикселей
Высота : 392 пикселя
Соотношение сторон : 1,85:1
Режим частоты кадров : Постоянный
Частота кадров : 23,976 (24000/1001) кадра/сек
Цветовое пространство : YUV
Субдискретизация насыщенности : 4:2:0
Битовая глубина : 8 бит
Тип развёртки : Прогрессивная
Бит/(Пиксели*Кадры) : 0.420
Размер потока : 1,88 Гбайт (92%)
Заголовок : Снова в школу (Back To School)
Библиотека кодирования : x264 core 148 r2744 b97ae06
Настройки программы : cabac=1 / ref=11 / deblock=1:-1:-1 / analyse=0x3:0x133 / me=umh / subme=11 / psy=1 / psy_rd=1.00:0.15 / mixed_ref=1 / me_range=64 / chroma_me=1 / trellis=2 / 8x8dct=1 / cqm=0 / deadzone=21,11 / fast_pskip=0 / chroma_qp_offset=-3 / threads=6 / lookahead_threads=1 / sliced_threads=0 / nr=0 / decimate=0 / interlaced=0 / bluray_compat=0 / constrained_intra=0 / bframes=16 / b_pyramid=2 / b_adapt=2 / b_bias=0 / direct=3 / weightb=1 / open_gop=0 / weightp=2 / keyint=240 / keyint_min=23 / scenecut=40 / intra_refresh=0 / rc_lookahead=60 / rc=2pass / mbtree=0 / bitrate=2843 / ratetol=1.0 / qcomp=0.60 / qpmin=0 / qpmax=69 / qpstep=4 / cplxblur=20.0 / qblur=0.5 / vbv_maxrate=50000 / vbv_bufsize=62500 / nal_hrd=none / filler=0 / ip_ratio=1.40 / pb_ratio=1.30 / aq=1:1.00
Язык : English
Default : Да
Forced : Нет
Аудио
Идентификатор : 2
Формат : AC-3
Формат/Информация : Audio Coding 3
Коммерческое название : Dolby Digital
Идентификатор кодека : A_AC3
Продолжительность : 1 ч. 36 м.
Вид битрейта : Постоянный
Битрейт : 192 Кбит/сек
Каналы : 2 канала
Channel layout : L R
Частота : 48,0 КГц
Частота кадров : 31,250 кадров/сек (1536 SPF)
Метод сжатия : С потерями
Размер потока : 133 Мбайт (6%)
Заголовок : Дублированный ''Варус Видео'' (AC-3, Постоянный, 192 Кбит/сек, 2 канала, 48,0 КГц)
Язык : Russian
Service kind : Complete Main
Default : Да
Forced : Нет
Меню
00:00:00.000 : en:00:00:00.000
00:02:15.383 : en:00:02:15.383
00:04:20.134 : en:00:04:20.134
00:07:53.180 : en:00:07:53.180
00:09:06.168 : en:00:09:06.168
00:13:43.239 : en:00:13:43.239
00:15:55.913 : en:00:15:55.913
00:16:49.341 : en:00:16:49.341
00:19:35.132 : en:00:19:35.132
00:22:50.451 : en:00:22:50.451
00:27:04.497 : en:00:27:04.497
00:28:05.721 : en:00:28:05.721
00:31:10.159 : en:00:31:10.159
00:34:16.012 : en:00:34:16.012
00:36:23.639 : en:00:36:23.639
00:38:18.170 : en:00:38:18.170
00:41:31.822 : en:00:41:31.822
00:43:00.536 : en:00:43:00.536
00:48:14.056 : en:00:48:14.056
00:54:44.030 : en:00:54:44.030
00:56:18.458 : en:00:56:18.458
00:58:05.440 : en:00:58:05.440
01:00:54.025 : en:01:00:54.025
01:04:16.351 : en:01:04:16.351
01:11:38.792 : en:01:11:38.792
01:14:17.411 : en:01:14:17.411
01:16:05.600 : en:01:16:05.600
01:17:31.563 : en:01:17:31.563
01:19:38.439 : en:01:19:38.439
01:21:07.028 : en:01:21:07.028
01:24:12.337 : en:01:24:12.337
01:32:19.867 : en:01:32:19.867
Скриншоты:
Если надо вернуться на сидирование раздачи пишите в ЛС.
По вопросам изготовления рипов под заказ обращайтесь в ЛС.
[Профиль] [ЛС]
Показать сообщения:    
Ответить на тему

Текущее время: 24-Май 09:41

Часовой пояс: UTC + 3



Вы не можете начинать темы
Вы не можете отвечать на сообщения
Вы не можете редактировать свои сообщения
Вы не можете удалять свои сообщения
Вы не можете голосовать в опросах
Вы не можете прикреплять файлы к сообщениям
Вы не можете скачивать файлы