Компаньон / The Associate (1996) BDRip [H.264]

Ответить на тему
 
Автор Сообщение

MAG3131 ®

Пол: Мужской

Стаж: 52 года

Сообщений: 108

Откуда: Санкт-Петербург

Создавать темы 05-Окт-2020 23:39

[Цитировать]

Компаньон / The Associate (1996) BDRip [H.264] - Производство: США / Frederic Golchan Productions, Hollywood Pictures, Interscope Communications, PolyGram Filmed Entertainment
Жанр: комедия
Режиссер: Дональд Питри
Продюсер: Фредерик Голчан, Адам Лейпциг, Патрик Марки
Актеры: Вупи Голдберг, Дайэнн Уист, Илай Уоллак, Тим Дейли, Биби Ньювирт, Остин Пендлтон, Лэйни Казан, Джордж Мартин, Кенни Керр, Ли Уилкоф
Описание:
Финансовый аналитик Лорел Айрис - умна, способна и талантлива во всем,.. что касается денег. Казалось бы, у нашей героини есть все данные, чтобы преуспеть, взбираясь по карьерной лестнице Уолл-Стрита. Но в деловом мире, как нигде, царят ужасные предрассудки, и Лорел теряет надежду на дальнейшее продвижение из-за своего коллеги-расиста Фрэнка.
Именно это печальное обстоятельство побуждает ее резко изменить свой путь к финансовому Олимпу! Она разрабатывает гениальный, но рискованный план, чтобы создать у окружающих впечатление, что ее деловым партнером является важная персона (естественно, белый мужчина!) в мире больших денег.
Тщательно создавая миф под именем «Роберт С.Катти», Лорел мастерски балансирует между иллюзией и успехом до тех пор, пока ее соперник Фрэнк вдруг не решается приоткрыть завесу тайны над личностью загадочного компаньона!

Возраст: 16+ (зрителям, достигшим 16 лет)
Рейтинг MPAA: PG-13 (детям до 13 лет просмотр нежелателен)
Релиз от: MAG3131
Продолжительность: 01:53:43
Качество видео: BDRip
Перевод: Многоголосый
Субтитры: Отсутствуют
Видео: AVC/H.264, 720x392, ~2193 kbps, 23,976 fps
Аудио #01: AC3, 2 ch, 192 kbps (Русский - Многоголосый ''Первый канал'')
Аудио #02: AC3, 2 ch, 192 kbps (Русский - Многоголосый ''Премьер Видео Фильм'')

MediaInfo

Общее
Уникальный идентификатор : 239081256967804667527969270872668958004 (0xB3DD600CB0207B179348A1D1C64CED34)
Полное имя : Компаньон (The Associate).mkv
Формат : Matroska
Версия формата : Version 2
Размер файла : 2,05 Гбайт
Продолжительность : 1 ч. 53 м.
Общий поток : 2 578 Кбит/сек
Дата кодирования : UTC 2017-10-31 20:22:27
Программа кодирования : mkvmerge v17.0.0 ('Be Ur Friend') 64-bit
Библиотека кодирования : libebml v1.3.5 + libmatroska v1.4.8
Attachments : Лог кодирования.log
Видео
Идентификатор : 1
Формат : AVC
Формат/Информация : Advanced Video Codec
Профиль формата : High@L4.1
Настройки формата : CABAC / 12 Ref Frames
Параметр CABAC формата : Да
Параметр RefFrames формата : 12 кадров
Идентификатор кодека : V_MPEG4/ISO/AVC
Продолжительность : 1 ч. 53 м.
Битрейт : 2 193 Кбит/сек
Ширина : 720 пикселей
Высота : 392 пикселя
Соотношение сторон : 1,85:1
Режим частоты кадров : Постоянный
Частота кадров : 23,976 (24000/1001) кадра/сек
Цветовое пространство : YUV
Субдискретизация насыщенности : 4:2:0
Битовая глубина : 8 бит
Тип развёртки : Прогрессивная
Бит/(Пиксели*Кадры) : 0.324
Размер потока : 1,70 Гбайт (83%)
Заголовок : Компаньон (The Associate)
Библиотека кодирования : x264 core 152 r2851 ba24899
Настройки программы : cabac=1 / ref=12 / deblock=1:-1:-1 / analyse=0x3:0x133 / me=umh / subme=11 / psy=1 / psy_rd=1.00:0.15 / mixed_ref=1 / me_range=64 / chroma_me=1 / trellis=2 / 8x8dct=1 / cqm=0 / deadzone=21,11 / fast_pskip=0 / chroma_qp_offset=-3 / threads=6 / lookahead_threads=1 / sliced_threads=0 / nr=0 / decimate=0 / interlaced=0 / bluray_compat=0 / constrained_intra=0 / bframes=16 / b_pyramid=2 / b_adapt=2 / b_bias=0 / direct=3 / weightb=1 / open_gop=0 / weightp=2 / keyint=240 / keyint_min=23 / scenecut=40 / intra_refresh=0 / rc_lookahead=60 / rc=2pass / mbtree=0 / bitrate=2193 / ratetol=1.0 / qcomp=0.60 / qpmin=0 / qpmax=69 / qpstep=4 / cplxblur=20.0 / qblur=0.5 / vbv_maxrate=50000 / vbv_bufsize=62500 / nal_hrd=none / filler=0 / ip_ratio=1.40 / pb_ratio=1.30 / aq=1:1.00
Язык : English
Default : Да
Forced : Нет
Аудио #1
Идентификатор : 2
Формат : AC-3
Формат/Информация : Audio Coding 3
Коммерческое название : Dolby Digital
Идентификатор кодека : A_AC3
Продолжительность : 1 ч. 53 м.
Вид битрейта : Постоянный
Битрейт : 192 Кбит/сек
Каналы : 2 канала
Channel layout : L R
Частота : 48,0 КГц
Частота кадров : 31,250 кадров/сек (1536 SPF)
Метод сжатия : С потерями
Размер потока : 156 Мбайт (7%)
Заголовок : Многоголосый ''Первый канал'' (AC-3, Постоянный, 192 Кбит/сек, 2 канала, 48,0 КГц, 16 бит)
Язык : Russian
Service kind : Complete Main
Default : Да
Forced : Нет
Аудио #2
Идентификатор : 3
Формат : AC-3
Формат/Информация : Audio Coding 3
Коммерческое название : Dolby Digital
Идентификатор кодека : A_AC3
Продолжительность : 1 ч. 53 м.
Вид битрейта : Постоянный
Битрейт : 192 Кбит/сек
Каналы : 2 канала
Channel layout : L R
Частота : 48,0 КГц
Частота кадров : 31,250 кадров/сек (1536 SPF)
Метод сжатия : С потерями
Размер потока : 156 Мбайт (7%)
Заголовок : Многоголосый ''Премьер Видео Фильм'' (AC-3, Постоянный, 192 Кбит/сек, 2 канала, 48,0 КГц, 16 бит)
Язык : Russian
Service kind : Complete Main
Default : Нет
Forced : Нет
Меню
00:00:00.000 : en:00:00:00.000
00:07:35.288 : en:00:07:35.288
00:16:29.822 : en:00:16:29.822
00:27:33.277 : en:00:27:33.277
00:39:16.187 : en:00:39:16.187
00:53:57.860 : en:00:53:57.860
01:02:29.371 : en:01:02:29.371
01:10:50.455 : en:01:10:50.455
01:23:27.419 : en:01:23:27.419
01:29:46.214 : en:01:29:46.214
01:38:15.098 : en:01:38:15.098
01:48:36.510 : en:01:48:36.510
Скриншоты:
Если надо вернуться на сидирование раздачи пишите в ЛС.
По вопросам изготовления рипов под заказ обращайтесь в ЛС.
[Профиль] [ЛС]
Показать сообщения:    
Ответить на тему

Текущее время: 24-Май 08:19

Часовой пояс: UTC + 3



Вы не можете начинать темы
Вы не можете отвечать на сообщения
Вы не можете редактировать свои сообщения
Вы не можете удалять свои сообщения
Вы не можете голосовать в опросах
Вы не можете прикреплять файлы к сообщениям
Вы не можете скачивать файлы