Консьерж / For Love or Money (1993) BDRip [H.264]

Ответить на тему
 
Автор Сообщение

MAG3131 ®

Пол: Мужской

Стаж: 52 года

Сообщений: 108

Откуда: Санкт-Петербург

Создавать темы 06-Окт-2020 01:24

[Цитировать]

Консьерж / For Love or Money (1993) BDRip [H.264] - Производство: США / Universal Pictures
Жанр: драма, мелодрама, комедия
Режиссер: Барри Зонненфельд
Продюсер: Брайан Грейзер, Дэвид Т. Френдли, Грэхэм Плэйс
Актеры: Майкл Дж. Фокс, Габриель Анвар, Энтони Хиггинс, Боб Бэлабан, Майкл Такер, Айзек Мизрахи, Патрик Брин, Удо Кир, Саймон Джонс, Дайян Брилл
Описание:
У Дугласа, консьержа роскошной гостиницы, две мечты - заработать на собственный отель и жениться на красотке Энди. Щедрые чаевые от богатых клиентов помогут осуществить первую. А со второй проблема - как жениться на девушке, у которой уже есть жених, к тому же красивый и богатый?..

Возраст: 16+ (зрителям, достигшим 16 лет)
Рейтинг MPAA: PG (рекомендуется присутствие родителей)
Релиз от: MAG3131
Продолжительность: 01:35:11
Качество видео: BDRip
Перевод: Дублированный
Субтитры: Отсутствуют
Видео: AVC/H.264, 720x392, ~2889 kbps, 23,976 fps
Аудио: AC3, 2 ch, 192 kbps (Русский - Дублированный ''Пифагор / BD EUR'')

MediaInfo

Общее
Уникальный идентификатор : 200362719567382758844677969264041049862 (0x96BC74C5499A2CB4B9B488AB013CBF06)
Полное имя : Консьерж (For Love Or Money).mkv
Формат : Matroska
Версия формата : Version 2
Размер файла : 2,05 Гбайт
Продолжительность : 1 ч. 35 м.
Общий поток : 3 081 Кбит/сек
Дата кодирования : UTC 2017-11-05 07:29:16
Программа кодирования : mkvmerge v17.0.0 ('Be Ur Friend') 64-bit
Библиотека кодирования : libebml v1.3.5 + libmatroska v1.4.8
Attachments : Лог кодирования.log
Видео
Идентификатор : 1
Формат : AVC
Формат/Информация : Advanced Video Codec
Профиль формата : High@L4.1
Настройки формата : CABAC / 12 Ref Frames
Параметр CABAC формата : Да
Параметр RefFrames формата : 12 кадров
Идентификатор кодека : V_MPEG4/ISO/AVC
Продолжительность : 1 ч. 35 м.
Битрейт : 2 889 Кбит/сек
Ширина : 720 пикселей
Высота : 392 пикселя
Соотношение сторон : 1,85:1
Режим частоты кадров : Постоянный
Частота кадров : 23,976 (24000/1001) кадра/сек
Цветовое пространство : YUV
Субдискретизация насыщенности : 4:2:0
Битовая глубина : 8 бит
Тип развёртки : Прогрессивная
Бит/(Пиксели*Кадры) : 0.427
Размер потока : 1,88 Гбайт (92%)
Заголовок : Консьерж (For Love Or Money)
Библиотека кодирования : x264 core 152 r2851 ba24899
Настройки программы : cabac=1 / ref=12 / deblock=1:-1:-1 / analyse=0x3:0x133 / me=umh / subme=11 / psy=1 / psy_rd=1.00:0.15 / mixed_ref=1 / me_range=64 / chroma_me=1 / trellis=2 / 8x8dct=1 / cqm=0 / deadzone=21,11 / fast_pskip=0 / chroma_qp_offset=-3 / threads=6 / lookahead_threads=1 / sliced_threads=0 / nr=0 / decimate=0 / interlaced=0 / bluray_compat=0 / constrained_intra=0 / bframes=16 / b_pyramid=2 / b_adapt=2 / b_bias=0 / direct=3 / weightb=1 / open_gop=0 / weightp=2 / keyint=240 / keyint_min=23 / scenecut=40 / intra_refresh=0 / rc_lookahead=60 / rc=2pass / mbtree=0 / bitrate=2889 / ratetol=1.0 / qcomp=0.60 / qpmin=0 / qpmax=69 / qpstep=4 / cplxblur=20.0 / qblur=0.5 / vbv_maxrate=50000 / vbv_bufsize=62500 / nal_hrd=none / filler=0 / ip_ratio=1.40 / pb_ratio=1.30 / aq=1:1.00
Язык : English
Default : Да
Forced : Нет
Аудио
Идентификатор : 2
Формат : AC-3
Формат/Информация : Audio Coding 3
Коммерческое название : Dolby Digital
Идентификатор кодека : A_AC3
Продолжительность : 1 ч. 35 м.
Вид битрейта : Постоянный
Битрейт : 192 Кбит/сек
Каналы : 2 канала
Channel layout : L R
Частота : 48,0 КГц
Частота кадров : 31,250 кадров/сек (1536 SPF)
Метод сжатия : С потерями
Размер потока : 131 Мбайт (6%)
Заголовок : Дублированный ''Пифагор / BD EUR'' (AC-3, Постоянный, 192 Кбит/сек, 2 канала, 48,0 КГц)
Язык : Russian
Service kind : Complete Main
Default : Да
Forced : Нет
Меню
00:00:00.000 : en:00:00:00.000
00:02:05.834 : en:00:02:05.834
00:13:27.640 : en:00:13:27.640
00:18:36.073 : en:00:18:36.073
00:21:50.142 : en:00:21:50.142
00:29:51.665 : en:00:29:51.665
00:31:03.278 : en:00:31:03.278
00:42:29.213 : en:00:42:29.213
00:49:26.297 : en:00:49:26.297
01:01:39.905 : en:01:01:39.905
01:03:24.050 : en:01:03:24.050
01:07:22.872 : en:01:07:22.872
01:11:16.856 : en:01:11:16.856
01:16:06.687 : en:01:16:06.687
01:17:10.125 : en:01:17:10.125
01:20:23.610 : en:01:20:23.610
01:23:49.942 : en:01:23:49.942
01:28:07.616 : en:01:28:07.616
01:29:28.488 : en:01:29:28.488
01:30:14.200 : en:01:30:14.200
Скриншоты:
Если надо вернуться на сидирование раздачи пишите в ЛС.
По вопросам изготовления рипов под заказ обращайтесь в ЛС.
[Профиль] [ЛС]
Показать сообщения:    
Ответить на тему

Текущее время: 24-Май 09:07

Часовой пояс: UTC + 3



Вы не можете начинать темы
Вы не можете отвечать на сообщения
Вы не можете редактировать свои сообщения
Вы не можете удалять свои сообщения
Вы не можете голосовать в опросах
Вы не можете прикреплять файлы к сообщениям
Вы не можете скачивать файлы