Секрет моего успеха / The Secret of My Success (1987) BDRip [H.264]

Ответить на тему
 
Автор Сообщение

MAG3131 ®

Пол: Мужской

Стаж: 52 года

Сообщений: 108

Откуда: Санкт-Петербург

Создавать темы 11-Окт-2020 02:40

[Цитировать]

Секрет моего успеха / The Secret of My Success (1987) BDRip [H.264] - Производство: США / Rastar Pictures, Universal Pictures
Жанр: мелодрама, комедия
Режиссер: Херберт Росс
Продюсер: Херберт Росс, Джозеф М. Караччоло, Дэвид Чэсмэн
Актеры: Майкл Дж. Фокс, Хелен Слейтер, Ричард Джордан, Маргарет Уиттон, Джон Пэнкоу, Кристофер Мёрни, Джерри Бэммен, Фред Гуинн, Кэрол Энн Сьюзи, Элизабет Франц
Описание:
Брантли Фостер — выпускник колледжа из Канзаса — переезжает в Нью-Йорк, чтобы начать карьеру финансиста. Однако компанию, в которой он планировал работать, покупает другая корпорация, и нашему герою отказывают. После нескольких неудачных попыток найти другую работу Брантли устраивается на должность разносчика писем в компанию своего дяди Говарда Прескота.

Возраст: 16+ (зрителям, достигшим 16 лет)
Рейтинг MPAA: PG-13 (детям до 13 лет просмотр нежелателен)
Релиз от: MAG3131
Продолжительность: 01:50:25
Качество видео: BDRip
Перевод: Дублированный
Субтитры: Отсутствуют
Видео: AVC/H.264, 720x392, ~3350 kbps, 23,976 fps
Аудио: AC3, 2 ch, 192 kbps (Русский - Дублированный ''Пифагор / Blu-ray EUR'')

MediaInfo

Общее
Уникальный идентификатор : 43657558333083771522942911774481409395 (0x20D823CFC831C59E96C0FBBAA5476573)
Полное имя : Секрет моего успеха (The Secret Of My Success).mkv
Формат : Matroska
Версия формата : Version 2
Размер файла : 2,73 Гбайт
Продолжительность : 1 ч. 50 м.
Общий поток : 3 540 Кбит/сек
Дата кодирования : UTC 2018-01-14 09:35:55
Программа кодирования : mkvmerge v19.0.0 ('Brave Captain') 64-bit
Библиотека кодирования : libebml v1.3.5 + libmatroska v1.4.8
Attachments : Лог кодирования.log
Видео
Идентификатор : 1
Формат : AVC
Формат/Информация : Advanced Video Codec
Профиль формата : High@L4.1
Настройки формата : CABAC / 12 Ref Frames
Параметр CABAC формата : Да
Параметр RefFrames формата : 12 кадров
Идентификатор кодека : V_MPEG4/ISO/AVC
Продолжительность : 1 ч. 50 м.
Битрейт : 3 350 Кбит/сек
Ширина : 720 пикселей
Высота : 392 пикселя
Соотношение сторон : 1,85:1
Режим частоты кадров : Постоянный
Частота кадров : 23,976 (24000/1001) кадра/сек
Цветовое пространство : YUV
Субдискретизация насыщенности : 4:2:0
Битовая глубина : 8 бит
Тип развёртки : Прогрессивная
Бит/(Пиксели*Кадры) : 0.495
Размер потока : 2,53 Гбайт (93%)
Заголовок : Секрет моего успеха (The Secret Of My Success)
Библиотека кодирования : x264 core 152 r2851 ba24899
Настройки программы : cabac=1 / ref=12 / deblock=1:-1:-1 / analyse=0x3:0x133 / me=umh / subme=11 / psy=1 / psy_rd=1.00:0.15 / mixed_ref=1 / me_range=64 / chroma_me=1 / trellis=2 / 8x8dct=1 / cqm=0 / deadzone=21,11 / fast_pskip=0 / chroma_qp_offset=-3 / threads=6 / lookahead_threads=1 / sliced_threads=0 / nr=0 / decimate=0 / interlaced=0 / bluray_compat=0 / constrained_intra=0 / bframes=16 / b_pyramid=2 / b_adapt=2 / b_bias=0 / direct=3 / weightb=1 / open_gop=0 / weightp=2 / keyint=240 / keyint_min=23 / scenecut=40 / intra_refresh=0 / rc_lookahead=60 / rc=2pass / mbtree=0 / bitrate=3350 / ratetol=1.0 / qcomp=0.60 / qpmin=0 / qpmax=69 / qpstep=4 / cplxblur=20.0 / qblur=0.5 / vbv_maxrate=50000 / vbv_bufsize=62500 / nal_hrd=none / filler=0 / ip_ratio=1.40 / pb_ratio=1.30 / aq=1:1.00
Язык : English
Default : Да
Forced : Нет
Аудио
Идентификатор : 2
Формат : AC-3
Формат/Информация : Audio Coding 3
Коммерческое название : Dolby Digital
Идентификатор кодека : A_AC3
Продолжительность : 1 ч. 50 м.
Вид битрейта : Постоянный
Битрейт : 192 Кбит/сек
Каналы : 2 канала
Channel layout : L R
Частота : 48,0 КГц
Частота кадров : 31,250 кадров/сек (1536 SPF)
Метод сжатия : С потерями
Размер потока : 152 Мбайт (5%)
Заголовок : Дублированный ''Пифагор / Blu-ray EUR'' (AC-3, Постоянный, 192 Кбит/сек, 2 канала, 48,0 КГц)
Язык : Russian
Service kind : Complete Main
Default : Да
Forced : Нет
Меню
00:00:00.000 : en:00:00:00.000
00:04:53.668 : en:00:04:53.668
00:10:25.708 : en:00:10:25.708
00:17:42.061 : en:00:17:42.061
00:23:10.055 : en:00:23:10.055
00:32:38.123 : en:00:32:38.123
00:34:52.048 : en:00:34:52.048
00:39:36.165 : en:00:39:36.165
00:52:43.869 : en:00:52:43.869
00:57:15.891 : en:00:57:15.891
01:02:08.475 : en:01:02:08.475
01:11:04.510 : en:01:11:04.510
01:14:29.006 : en:01:14:29.006
01:21:01.231 : en:01:21:01.231
01:23:32.925 : en:01:23:32.925
01:29:26.903 : en:01:29:26.903
01:37:16.748 : en:01:37:16.748
01:39:29.630 : en:01:39:29.630
01:44:38.314 : en:01:44:38.314
01:46:29.466 : en:01:46:29.466
Скриншоты:
Если надо вернуться на сидирование раздачи пишите в ЛС.
По вопросам изготовления рипов под заказ обращайтесь в ЛС.
[Профиль] [ЛС]
Показать сообщения:    
Ответить на тему

Текущее время: 24-Май 10:00

Часовой пояс: UTC + 3



Вы не можете начинать темы
Вы не можете отвечать на сообщения
Вы не можете редактировать свои сообщения
Вы не можете удалять свои сообщения
Вы не можете голосовать в опросах
Вы не можете прикреплять файлы к сообщениям
Вы не можете скачивать файлы