Город Эмбер: Побег / City of Ember (2008) BDRip [H.264]

Ответить на тему
 
Автор Сообщение

MAG3131 ®

Пол: Мужской

Стаж: 52 года

Сообщений: 108

Откуда: Санкт-Петербург

Создавать темы 12-Окт-2020 03:33

[Цитировать]

Город Эмбер: Побег / City of Ember (2008) BDRip [H.264] - Производство: США / Playtone, Walden Media
Жанр: фантастика, фэнтези, приключения, семейный
Режиссер: Гил Кинан
Продюсер: Гари Гоэцман, Том Хэнкс, Диана Чои
Актеры: Гарри Тредэвэй, Сирша Ронан, Дэвид Райалл, Мэри Кэй Плэйс, Тим Роббинс, Билл Мюррей, Макензи Крук, Тоби Джонс, Лайам Бурк, Брид Ни Чионаола
Описание:
Уже несколько поколений люди живут в подземном городе, освещаемом только фонарями. Создатели города рассчитывали, что жители смогут выйти на поверхность через 200 лет, и оставили инструкции запечатанные во временной капсуле. Капсула хранилась и передавалась от одного мэра города к следующему. Однако по стечению обстоятельств эта цепочка прервалась, и шкатулка с инструкциями была утеряна.
Давно минули 200 лет, запасы продовольствия на исходе, а сердце подземного города — энергетический генератор - исчерпал срок своего действия и работает, буквально, на честном слове, но мэр не видит в этом большой проблемы… для себя и не собирается искать пути спасения для остальных жителей. Забытые инструкции случайно находит Лина, и теперь она со своим другом Дуном пытаются расшифровать послание, преодолеть людское недоверие, страх, избежать ловушек, преследования полиции и помочь жителям угасающего города найти дорогу в новый мир.

Возраст: 12+ (зрителям, достигшим 12 лет)
Рейтинг MPAA: PG (рекомендуется присутствие родителей)
Релиз от: MAG3131
Продолжительность: 01:34:43
Качество видео: BDRip
Перевод: Дублированный
Субтитры: Отсутствуют
Видео: AVC/H.264, 720x304, ~838 kbps, 24 fps
Аудио: AC3, 2 ch, 192 kbps (Русский - Дублированный ''Пифагор / West'')

MediaInfo

Общее
Уникальный идентификатор : 253027261058012573125110894581087276127 (0xBE5B472342D5AF83B2F32946152D0C5F)
Полное имя : E:\Films Coding\22\Город Эмбер ''Побег'' (City Of Ember).mkv
Формат : Matroska
Версия формата : Version 2
Размер файла : 698 Мбайт
Продолжительность : 1 ч. 34 м.
Общий поток : 1 030 Кбит/сек
Дата кодирования : UTC 2017-09-24 22:30:18
Программа кодирования : mkvmerge v15.0.0 ('Duel with the Devil') 64-bit
Библиотека кодирования : libebml v1.3.5 + libmatroska v1.4.5
Attachments : Лог кодирования.log
Видео
Идентификатор : 1
Формат : AVC
Формат/Информация : Advanced Video Codec
Профиль формата : High@L4.1
Настройки формата : CABAC / 12 Ref Frames
Параметр CABAC формата : Да
Параметр RefFrames формата : 12 кадров
Идентификатор кодека : V_MPEG4/ISO/AVC
Продолжительность : 1 ч. 34 м.
Битрейт : 838 Кбит/сек
Ширина : 720 пикселей
Высота : 304 пикселя
Соотношение сторон : 2,35:1
Режим частоты кадров : Постоянный
Частота кадров : 24,000 кадра/сек
Цветовое пространство : YUV
Субдискретизация насыщенности : 4:2:0
Битовая глубина : 8 бит
Тип развёртки : Прогрессивная
Бит/(Пиксели*Кадры) : 0.160
Размер потока : 554 Мбайт (79%)
Заголовок : Город Эмбер ''Побег'' (City Of Ember)
Библиотека кодирования : x264 core 152 r2851 ba24899
Настройки программы : cabac=1 / ref=12 / deblock=1:-1:-1 / analyse=0x3:0x133 / me=umh / subme=11 / psy=1 / psy_rd=1.00:0.15 / mixed_ref=1 / me_range=64 / chroma_me=1 / trellis=2 / 8x8dct=1 / cqm=0 / deadzone=21,11 / fast_pskip=0 / chroma_qp_offset=-3 / threads=6 / lookahead_threads=1 / sliced_threads=0 / nr=0 / decimate=0 / interlaced=0 / bluray_compat=0 / constrained_intra=0 / bframes=16 / b_pyramid=2 / b_adapt=2 / b_bias=0 / direct=3 / weightb=1 / open_gop=0 / weightp=2 / keyint=240 / keyint_min=24 / scenecut=40 / intra_refresh=0 / rc_lookahead=60 / rc=2pass / mbtree=0 / bitrate=838 / ratetol=1.0 / qcomp=0.60 / qpmin=0 / qpmax=69 / qpstep=4 / cplxblur=20.0 / qblur=0.5 / vbv_maxrate=50000 / vbv_bufsize=62500 / nal_hrd=none / filler=0 / ip_ratio=1.40 / pb_ratio=1.30 / aq=1:1.00
Язык : English
Default : Да
Forced : Нет
Аудио
Идентификатор : 2
Формат : AC-3
Формат/Информация : Audio Coding 3
Коммерческое название : Dolby Digital
Идентификатор кодека : A_AC3
Продолжительность : 1 ч. 34 м.
Вид битрейта : Постоянный
Битрейт : 192 Кбит/сек
Каналы : 2 канала
Channel layout : L R
Частота : 48,0 КГц
Частота кадров : 31,250 кадров/сек (1536 SPF)
Метод сжатия : С потерями
Размер потока : 130 Мбайт (19%)
Заголовок : Дублированный ''Пифагор / West'' (AC-3, Постоянный, 192 Кбит/сек, 2 канала, 48,0 КГц)
Язык : Russian
Service kind : Complete Main
Default : Да
Forced : Нет
Меню
00:00:00.000 : en:00:00:00.000
00:05:14.500 : en:00:05:14.500
00:10:33.458 : en:00:10:33.458
00:15:59.500 : en:00:15:59.500
00:22:29.125 : en:00:22:29.125
00:29:41.208 : en:00:29:41.208
00:33:58.917 : en:00:33:58.917
00:38:08.417 : en:00:38:08.417
00:45:32.750 : en:00:45:32.750
00:51:57.458 : en:00:51:57.458
00:56:29.167 : en:00:56:29.167
01:00:53.292 : en:01:00:53.292
01:04:53.500 : en:01:04:53.500
01:08:46.667 : en:01:08:46.667
01:12:04.625 : en:01:12:04.625
01:16:43.875 : en:01:16:43.875
01:21:14.375 : en:01:21:14.375
01:29:32.333 : en:01:29:32.333
Скриншоты:
Если надо вернуться на сидирование раздачи пишите в ЛС.
По вопросам изготовления рипов под заказ обращайтесь в ЛС.
[Профиль] [ЛС]
Показать сообщения:    
Ответить на тему

Текущее время: 24-Май 08:35

Часовой пояс: UTC + 3



Вы не можете начинать темы
Вы не можете отвечать на сообщения
Вы не можете редактировать свои сообщения
Вы не можете удалять свои сообщения
Вы не можете голосовать в опросах
Вы не можете прикреплять файлы к сообщениям
Вы не можете скачивать файлы