Миллионы Брюстера / Brewster's Millions (1985) BDRip [H.264]

Ответить на тему
 
Автор Сообщение

MAG3131 ®

Пол: Мужской

Стаж: 52 года

Сообщений: 108

Откуда: Санкт-Петербург

Создавать темы 12-Окт-2020 04:36

[Цитировать]

Миллионы Брюстера / Brewster's Millions (1985) BDRip [H.264] - Производство: США / Davis Entertainment, Lawrence Gordon Productions, Silver Pictures, Universal Pictures
Жанр: комедия
Режиссер: Уолтер Хилл
Продюсер: Лоуренс Гордон, Джоэл Силвер, Джин Леви
Актеры: Ричард Прайор, Джон Кэнди, Лонетт МакКи, Стивен Коллинз, Джерри Орбак, Пэт Хингл, Това Фелдшух, Хьюм Кронин, Джо Грифази, Питер Джейсон
Описание:
Сюжет фильма строится на том, что игрок бейсбольной команды получает от скончавшегося эксцентричного родственника (белого миллионера) наследство в сотни миллионов долларов.
Однако не все так просто. В завещании есть коварный пункт. Вредный старикан указал в записанном на кинопленку завещании, что полностью сумму наследник получит лишь в том случае, если за месяц сможет потратить 30 млн долларов до последнего цента.

Возраст: 12+ (зрителям, достигшим 12 лет)
Рейтинг MPAA: PG (рекомендуется присутствие родителей)
Релиз от: MAG3131
Продолжительность: 01:41:09
Качество видео: BDRip
Перевод: Многоголосый
Субтитры: Отсутствуют
Видео: AVC/H.264, 720x392, ~3482 kbps, 23,976 fps
Аудио #01: AC3, 2 ch, 192 kbps (Русский - Многоголосый ''Neoclassica'')
Аудио #02: AC3, 2 ch, 192 kbps (Русский - Многоголосый ''Первый канал'')

MediaInfo

Общее
Уникальный идентификатор : 302237075088106480828082077868503837771 (0xE360BE4A535F56F1E3DDE98CF187AC4B)
Полное имя : Миллионы Брюстера (Brewster's Millions).mkv
Формат : Matroska
Версия формата : Version 2
Размер файла : 2,73 Гбайт
Продолжительность : 1 ч. 41 м.
Общий поток : 3 867 Кбит/сек
Дата кодирования : UTC 2018-08-16 19:54:27
Программа кодирования : mkvmerge v25.0.0 ('Prog Noir') 64-bit
Библиотека кодирования : libebml v1.3.6 + libmatroska v1.4.9
Attachments : Лог кодирования.log
Видео
Идентификатор : 1
Формат : AVC
Формат/Информация : Advanced Video Codec
Профиль формата : High@L4.1
Настройки формата : CABAC / 12 Ref Frames
Параметр CABAC формата : Да
Параметр RefFrames формата : 12 кадров
Идентификатор кодека : V_MPEG4/ISO/AVC
Продолжительность : 1 ч. 41 м.
Битрейт : 3 482 Кбит/сек
Ширина : 720 пикселей
Высота : 392 пикселя
Соотношение сторон : 1,85:1
Режим частоты кадров : Постоянный
Частота кадров : 23,976 (24000/1001) кадра/сек
Цветовое пространство : YUV
Субдискретизация насыщенности : 4:2:0
Битовая глубина : 8 бит
Тип развёртки : Прогрессивная
Бит/(Пиксели*Кадры) : 0.515
Размер потока : 2,41 Гбайт (88%)
Заголовок : Миллионы Брюстера (Brewster's Millions)
Библиотека кодирования : x264 core 155 r2901 7d0ff22
Настройки программы : cabac=1 / ref=12 / deblock=1:-1:-1 / analyse=0x3:0x133 / me=umh / subme=11 / psy=1 / psy_rd=1.00:0.15 / mixed_ref=1 / me_range=64 / chroma_me=1 / trellis=2 / 8x8dct=1 / cqm=0 / deadzone=21,11 / fast_pskip=0 / chroma_qp_offset=-3 / threads=6 / lookahead_threads=1 / sliced_threads=0 / nr=0 / decimate=0 / interlaced=0 / bluray_compat=0 / constrained_intra=0 / bframes=16 / b_pyramid=2 / b_adapt=2 / b_bias=0 / direct=3 / weightb=1 / open_gop=0 / weightp=2 / keyint=240 / keyint_min=23 / scenecut=40 / intra_refresh=0 / rc_lookahead=60 / rc=2pass / mbtree=0 / bitrate=3482 / ratetol=1.0 / qcomp=0.60 / qpmin=0 / qpmax=69 / qpstep=4 / cplxblur=20.0 / qblur=0.5 / vbv_maxrate=50000 / vbv_bufsize=62500 / nal_hrd=none / filler=0 / ip_ratio=1.40 / pb_ratio=1.30 / aq=1:1.00
Язык : English
Default : Да
Forced : Нет
Аудио #1
Идентификатор : 2
Формат : AC-3
Формат/Информация : Audio Coding 3
Коммерческое название : Dolby Digital
Идентификатор кодека : A_AC3
Продолжительность : 1 ч. 41 м.
Вид битрейта : Постоянный
Битрейт : 192 Кбит/сек
Каналы : 2 канала
Channel layout : L R
Частота : 48,0 КГц
Частота кадров : 31,250 кадров/сек (1536 SPF)
Метод сжатия : С потерями
Размер потока : 139 Мбайт (5%)
Заголовок : Многоголосый ''Neoclassica'' (AC-3, Постоянный, 192 Кбит/сек, 2 канала, 48,0 КГц)
Язык : Russian
Service kind : Complete Main
Default : Да
Forced : Нет
Аудио #2
Идентификатор : 3
Формат : AC-3
Формат/Информация : Audio Coding 3
Коммерческое название : Dolby Digital
Идентификатор кодека : A_AC3
Продолжительность : 1 ч. 41 м.
Вид битрейта : Постоянный
Битрейт : 192 Кбит/сек
Каналы : 2 канала
Channel layout : L R
Частота : 48,0 КГц
Частота кадров : 31,250 кадров/сек (1536 SPF)
Метод сжатия : С потерями
Размер потока : 139 Мбайт (5%)
Заголовок : Многоголосый ''Первый канал'' (AC-3, Постоянный, 192 Кбит/сек, 2 канала, 48,0 КГц)
Язык : Russian
Service kind : Complete Main
Default : Нет
Forced : Нет
Меню
00:00:00.000 : en:00:00:00.000
00:02:19.723 : en:00:02:19.723
00:04:34.566 : en:00:04:34.566
00:06:37.939 : en:00:06:37.939
00:09:03.418 : en:00:09:03.418
00:13:32.311 : en:00:13:32.311
00:16:55.598 : en:00:16:55.598
00:19:56.612 : en:00:19:56.612
00:21:59.360 : en:00:21:59.360
00:25:31.822 : en:00:25:31.822
00:28:58.654 : en:00:28:58.654
00:30:12.477 : en:00:30:12.477
00:34:01.164 : en:00:34:01.164
00:38:00.111 : en:00:38:00.111
00:41:38.788 : en:00:41:38.788
00:45:21.260 : en:00:45:21.260
00:50:00.414 : en:00:50:00.414
00:53:13.399 : en:00:53:13.399
00:56:28.385 : en:00:56:28.385
00:59:33.820 : en:00:59:33.820
01:02:29.746 : en:01:02:29.746
01:04:09.804 : en:01:04:09.804
01:06:48.922 : en:01:06:48.922
01:09:24.994 : en:01:09:24.994
01:13:00.376 : en:01:13:00.376
01:16:52.775 : en:01:16:52.775
01:20:24.903 : en:01:20:24.903
01:24:51.086 : en:01:24:51.086
01:29:44.713 : en:01:29:44.713
01:30:47.400 : en:01:30:47.400
01:33:57.257 : en:01:33:57.257
01:40:29.982 : en:01:40:29.982
Скриншоты:
Если надо вернуться на сидирование раздачи пишите в ЛС.
По вопросам изготовления рипов под заказ обращайтесь в ЛС.
[Профиль] [ЛС]
Показать сообщения:    
Ответить на тему

Текущее время: 24-Май 07:59

Часовой пояс: UTC + 3



Вы не можете начинать темы
Вы не можете отвечать на сообщения
Вы не можете редактировать свои сообщения
Вы не можете удалять свои сообщения
Вы не можете голосовать в опросах
Вы не можете прикреплять файлы к сообщениям
Вы не можете скачивать файлы