Сержант Билко / Sgt. Bilko (1996) BDRip [H.264]

Ответить на тему
 
Автор Сообщение

MAG3131 ®

Пол: Мужской

Стаж: 52 года

Сообщений: 108

Откуда: Санкт-Петербург

Создавать темы 12-Окт-2020 06:18

[Цитировать]

Сержант Билко / Sgt. Bilko (1996) BDRip [H.264] - Производство: США / Imagine Entertainment, Universal Pictures
Жанр: комедия
Режиссер: Джонатан Линн
Продюсер: Брайан Грейзер, Мэри МакЛаглен
Актеры: Стив Мартин, Дэн Эйкройд, Фил Хартмен, Гленн Хедли, Дэрил Митчелл, Макс Казелла, Эрик Эдвардс, Дэн Ферро, Джон Маршалл Джонс, Брайан Лекнер
Описание:
Сержант Билко - блестящий мошенник, острослов и неисправимый спорщик. Он - самый неблагонадежный человек в округе, и при этом его любят все. Ну, не все, конечно. Трудно любить человека, руку которого обнаруживаешь в своем кармане.
У сержанта Билко есть один заклятый враг, один друг и одна возлюбленная. Эрнест Билко заведует гаражом на военной базе. Он обладает особым даром «ставить диагноз» сломанным машинам, не открывая крышки капота. Кроме того, Эрнест повсюду находит деньги... по запаху.
Сержант Билко глубоко уважает солдат и офицеров армии США. Он считает, что эти патриоты сделали очень много для своей страны и имеют полное право поразвлечься в свободное от муштры время. Сержант Билко по собственной воле возложил на себя обязанность массовика-затейника для отставных офицеров и превратил форт Бакстер в игорный центр.
Общаясь с этим необычным человеком, можно быть уверенным только в одной вещи: если сержант Билко заключил пари, без сомнений, в выигрыше останется именно он.

Возраст: 12+ (зрителям, достигшим 12 лет)
Рейтинг MPAA: PG (рекомендуется присутствие родителей)
Релиз от: MAG3131
Продолжительность: 01:34:08
Качество видео: BDRip
Перевод: Многоголосый
Субтитры: Отсутствуют
Видео: AVC/H.264, 720x304, ~2731 kbps, 23,976 fps
Аудио #01: AC3, 2 ch, 192 kbps (Русский - Многоголосый ''Superbit'')
Аудио #02: AC3, 2 ch, 192 kbps (Русский - Многоголосый ''Фильм-экспорт / СТС'')

MediaInfo

Общее
Уникальный идентификатор : 27479809722404316927374494324090605048 (0x14AC6B392AAB0C5B098697D71A6E0DF8)
Полное имя : Сержант Билко (Sgt. Bilko).mkv
Формат : Matroska
Версия формата : Version 2
Размер файла : 2,05 Гбайт
Продолжительность : 1 ч. 34 м.
Общий поток : 3 114 Кбит/сек
Дата кодирования : UTC 2019-08-25 19:17:39
Программа кодирования : mkvmerge v37.0.0 ('Leave It') 64-bit
Библиотека кодирования : libebml v1.3.9 + libmatroska v1.5.2
Attachments : Лог кодирования.log
Видео
Идентификатор : 1
Формат : AVC
Формат/Информация : Advanced Video Codec
Профиль формата : High@L4.1
Настройки формата : CABAC / 12 Ref Frames
Параметр CABAC формата : Да
Параметр RefFrames формата : 12 кадров
Идентификатор кодека : V_MPEG4/ISO/AVC
Продолжительность : 1 ч. 34 м.
Битрейт : 2 731 Кбит/сек
Ширина : 720 пикселей
Высота : 304 пикселя
Соотношение сторон : 2,35:1
Режим частоты кадров : Постоянный
Частота кадров : 23,976 (24000/1001) кадра/сек
Цветовое пространство : YUV
Субдискретизация насыщенности : 4:2:0
Битовая глубина : 8 бит
Тип развёртки : Прогрессивная
Бит/(Пиксели*Кадры) : 0.520
Размер потока : 1,75 Гбайт (86%)
Заголовок : Сержант Билко (Sgt. Bilko)
Библиотека кодирования : x264 core 157 r2935 545de2f
Настройки программы : cabac=1 / ref=12 / deblock=1:-1:-1 / analyse=0x3:0x133 / me=umh / subme=11 / psy=1 / psy_rd=1.00:0.15 / mixed_ref=1 / me_range=64 / chroma_me=1 / trellis=2 / 8x8dct=1 / cqm=0 / deadzone=21,11 / fast_pskip=0 / chroma_qp_offset=-3 / threads=6 / lookahead_threads=1 / sliced_threads=0 / nr=0 / decimate=0 / interlaced=0 / bluray_compat=0 / constrained_intra=0 / bframes=16 / b_pyramid=2 / b_adapt=2 / b_bias=0 / direct=3 / weightb=1 / open_gop=0 / weightp=2 / keyint=240 / keyint_min=23 / scenecut=40 / intra_refresh=0 / rc_lookahead=60 / rc=2pass / mbtree=0 / bitrate=2731 / ratetol=1.0 / qcomp=0.60 / qpmin=0 / qpmax=69 / qpstep=4 / cplxblur=20.0 / qblur=0.5 / vbv_maxrate=50000 / vbv_bufsize=62500 / nal_hrd=none / filler=0 / ip_ratio=1.40 / pb_ratio=1.30 / aq=1:1.00
Язык : English
Default : Да
Forced : Нет
Аудио #1
Идентификатор : 2
Формат : AC-3
Формат/Информация : Audio Coding 3
Коммерческое название : Dolby Digital
Идентификатор кодека : A_AC3
Продолжительность : 1 ч. 34 м.
Вид битрейта : Постоянный
Битрейт : 192 Кбит/сек
Каналы : 2 канала
Channel layout : L R
Частота : 48,0 КГц
Частота кадров : 31,250 кадров/сек (1536 SPF)
Метод сжатия : С потерями
Размер потока : 129 Мбайт (6%)
Заголовок : Многоголосый ''Superbit'' (AC-3, Постоянный, 192 Кбит/сек, 2 канала, 48,0 КГц)
Язык : Russian
Service kind : Complete Main
Default : Да
Forced : Нет
Аудио #2
Идентификатор : 3
Формат : AC-3
Формат/Информация : Audio Coding 3
Коммерческое название : Dolby Digital
Идентификатор кодека : A_AC3
Продолжительность : 1 ч. 34 м.
Вид битрейта : Постоянный
Битрейт : 192 Кбит/сек
Каналы : 2 канала
Channel layout : L R
Частота : 48,0 КГц
Частота кадров : 31,250 кадров/сек (1536 SPF)
Метод сжатия : С потерями
Размер потока : 129 Мбайт (6%)
Заголовок : Многоголосый ''Фильм-экспорт / СТС'' (AC-3, Постоянный, 192 Кбит/сек, 2 канала, 48,0 КГц)
Язык : Russian
Service kind : Complete Main
Default : Нет
Forced : Нет
Меню
00:00:00.000 : :Глава 01
00:08:14.119 : :Глава 02
00:15:09.992 : :Глава 03
00:23:24.028 : :Глава 04
00:30:34.041 : :Глава 05
00:36:35.026 : :Глава 06
00:44:46.058 : :Глава 07
00:53:13.273 : :Глава 08
00:59:43.163 : :Глава 09
01:11:10.224 : :Глава 10
01:19:25.219 : :Глава 11
01:29:50.594 : :Глава 12
Скриншоты:
Если надо вернуться на сидирование раздачи пишите в ЛС.
По вопросам изготовления рипов под заказ обращайтесь в ЛС.
[Профиль] [ЛС]
Показать сообщения:    
Ответить на тему

Текущее время: 24-Май 08:53

Часовой пояс: UTC + 3



Вы не можете начинать темы
Вы не можете отвечать на сообщения
Вы не можете редактировать свои сообщения
Вы не можете удалять свои сообщения
Вы не можете голосовать в опросах
Вы не можете прикреплять файлы к сообщениям
Вы не можете скачивать файлы