Синьор Робинзон / Il signor Robinson, mostruosa storia d'amore e d'avventure (1976) BDRip [H.264]

Ответить на тему
 
Автор Сообщение

MAG3131 ®

Пол: Мужской

Стаж: 52 года

Сообщений: 108

Откуда: Санкт-Петербург

Создавать темы 12-Окт-2020 06:45

[Цитировать]

Синьор Робинзон / Il signor Robinson, mostruosa storia d'amore e d'avventure (1976) BDRip [H.264] - Производство: Италия / Vides Cinematografica
Жанр: мелодрама, комедия, приключения
Режиссер: Серджио Корбуччи
Продюсер: Франко Кристальди, Бруно Альтиссими
Актеры: Паоло Вилладжо, Зеуди Арая Кристальди, Перси Хоган, Анна Ногара
Описание:
Робинзон Крузо проходит через множество комичных ситуаций, пока ему не удается хоть как-то освоиться на острове. У него появляется даже Пятница - темнокожая красавица, с которой Робинзон поначалу тщетно пытается найти общий язык. Современный Робинзон не хочет отказываться от благ цивилизации и придумывает, как заменить телевизор, радио и все то, без чего в наше время трудно представить свою жизнь.

Возраст: 16+ (зрителям, достигшим 16 лет)
Рейтинг MPAA: этот продукт не был классифицирован
Релиз от: MAG3131
Продолжительность: 01:47:59
Качество видео: BDRip
Перевод: Дублированный с вставками многоголосого
Субтитры: Отсутствуют
Видео: AVC/H.264, 720x392, ~2523 kbps, 24 fps
Аудио: AC3, 2 ch, 192 kbps (Русский - Дублированный ''Союзмультфильм'' с вставками многоголосого ''РТР'')

MediaInfo

Общее
Уникальный идентификатор : 276174652588932736163383311144805441821 (0xCFC54DA70BE4FDB921C3A462353FA11D)
Полное имя : Синьор Робинзон ''Невероятная любовно-приключенческая история'' (Il Signor Robinson ''Mostruosa Storia D'Amore E D'Avventure'').mkv
Формат : Matroska
Версия формата : Version 2
Размер файла : 2,05 Гбайт
Продолжительность : 1 ч. 47 м.
Общий поток : 2 717 Кбит/сек
Дата кодирования : UTC 2019-10-29 13:35:04
Программа кодирования : mkvmerge v38.0.0 ('The Silent Type') 64-bit
Библиотека кодирования : libebml v1.3.9 + libmatroska v1.5.2
Attachments : Лог кодирования.log
Видео
Идентификатор : 1
Формат : AVC
Формат/Информация : Advanced Video Codec
Профиль формата : High@L4.1
Настройки формата : CABAC / 12 Ref Frames
Параметр CABAC формата : Да
Параметр RefFrames формата : 12 кадров
Идентификатор кодека : V_MPEG4/ISO/AVC
Продолжительность : 1 ч. 47 м.
Битрейт : 2 523 Кбит/сек
Ширина : 720 пикселей
Высота : 392 пикселя
Соотношение сторон : 1,85:1
Режим частоты кадров : Постоянный
Частота кадров : 24,000 кадра/сек
Цветовое пространство : YUV
Субдискретизация насыщенности : 4:2:0
Битовая глубина : 8 бит
Тип развёртки : Прогрессивная
Бит/(Пиксели*Кадры) : 0.372
Размер потока : 1,86 Гбайт (91%)
Заголовок : Синьор Робинзон ''Невероятная любовно-приключенческая история'' (Il Signor Robinson ''Mostruosa Storia D'Amore E D'Avventure'')
Библиотека кодирования : x264 core 157 r2935 545de2f
Настройки программы : cabac=1 / ref=12 / deblock=1:-1:-1 / analyse=0x3:0x133 / me=umh / subme=11 / psy=1 / psy_rd=1.00:0.15 / mixed_ref=1 / me_range=64 / chroma_me=1 / trellis=2 / 8x8dct=1 / cqm=0 / deadzone=21,11 / fast_pskip=0 / chroma_qp_offset=-3 / threads=6 / lookahead_threads=1 / sliced_threads=0 / nr=0 / decimate=0 / interlaced=0 / bluray_compat=0 / constrained_intra=0 / bframes=16 / b_pyramid=2 / b_adapt=2 / b_bias=0 / direct=3 / weightb=1 / open_gop=0 / weightp=2 / keyint=240 / keyint_min=24 / scenecut=40 / intra_refresh=0 / rc_lookahead=60 / rc=2pass / mbtree=0 / bitrate=2523 / ratetol=1.0 / qcomp=0.60 / qpmin=0 / qpmax=69 / qpstep=4 / cplxblur=20.0 / qblur=0.5 / vbv_maxrate=50000 / vbv_bufsize=62500 / nal_hrd=none / filler=0 / ip_ratio=1.40 / pb_ratio=1.30 / aq=1:1.00
Язык : Italian
Default : Да
Forced : Нет
Аудио
Идентификатор : 2
Формат : AC-3
Формат/Информация : Audio Coding 3
Коммерческое название : Dolby Digital
Идентификатор кодека : A_AC3
Продолжительность : 1 ч. 47 м.
Вид битрейта : Постоянный
Битрейт : 192 Кбит/сек
Каналы : 2 канала
Channel layout : L R
Частота : 48,0 КГц
Частота кадров : 31,250 кадров/сек (1536 SPF)
Метод сжатия : С потерями
Размер потока : 148 Мбайт (7%)
Заголовок : Дублированный ''Союзмультфильм'' с вставками многоголосого ''РТР'' (AC-3, Постоянный, 192 Кбит/сек, 2 канала, 48,0 КГц, 16 бит)
Язык : Russian
Service kind : Complete Main
Default : Да
Forced : Нет
Меню
00:00:00.000 : en:00:00:00.000
00:08:35.956 : en:00:08:35.956
00:18:13.333 : en:00:18:13.333
00:27:50.540 : en:00:27:50.540
00:36:42.708 : en:00:36:42.708
00:44:43.000 : en:00:44:43.000
00:54:15.000 : en:00:54:15.000
01:06:29.708 : en:01:06:29.708
01:14:19.792 : en:01:14:19.792
01:21:47.332 : en:01:21:47.332
01:34:09.542 : en:01:34:09.542
01:46:39.457 : en:01:46:39.457
Скриншоты:
Если надо вернуться на сидирование раздачи пишите в ЛС.
По вопросам изготовления рипов под заказ обращайтесь в ЛС.
[Профиль] [ЛС]
Показать сообщения:    
Ответить на тему

Текущее время: 24-Май 09:47

Часовой пояс: UTC + 3



Вы не можете начинать темы
Вы не можете отвечать на сообщения
Вы не можете редактировать свои сообщения
Вы не можете удалять свои сообщения
Вы не можете голосовать в опросах
Вы не можете прикреплять файлы к сообщениям
Вы не можете скачивать файлы