Коммандос / Commando (1985) BDRip [H.264] [Director's Cut]

Ответить на тему
 
Автор Сообщение

MAG3131 ®

Пол: Мужской

Стаж: 52 года

Сообщений: 108

Откуда: Санкт-Петербург

Создавать темы 23-Окт-2020 00:04

[Цитировать]

Коммандос / Commando (1985) BDRip [H.264] [Director's Cut] - Производство: США / 20th Century Fox Film Corporation, Silver Pictures, SLM Production Group
Жанр: боевик, триллер, приключения
Режиссер: Марк Л. Лестер
Продюсер: Джоэл Силвер, Стефани Броди, Роберт Косберг
Актеры: Арнольд Шварценеггер, Рей Дон Чонг, Дэн Хедайя, Вернон Уэллс, Джеймс Олсон, Дэвид Патрик Келли, Алисса Милано, Билл Дьюк, Дрю Снайдер, Шэрон Уайатт
Описание:
Бывший командир спецотряда, полковник в отставке Джон Матрикс, живёт в большом доме вдали от города вместе со своей 11-летней дочерью Дженни, пока однажды её не похищает бывший подчинённый Джона. Теперь бывшим сослуживцам придётся несладко.

Возраст: 16+ (зрителям, достигшим 16 лет)
Рейтинг MPAA: R (лицам до 17 лет обязательно присутствие взрослого)
Релиз от: MAG3131
Продолжительность: 01:31:50
Качество видео: BDRip
Перевод: Дублированный, Авторский
Субтитры: Отсутствуют
Видео: AVC/H.264, 720x392, ~2809 kbps, 23,976 fps
Аудио #01: AC3, 2 ch, 192 kbps (Русский - Дублированный ''Хлопушка'' с вставками двухголосого ''Премьер Видео Фильм'')
Аудио #02: AC3, 2 ch, 192 kbps (Русский - Авторский ''Дмитрий ''Goblin'' Пучков'' с вставками авторского ''Андрей Гаврилов'')

MediaInfo

Общее
Уникальный идентификатор : 183829181899420695824143529553288680809 (0x8A4C366D6D6CC237522A080090CAD569)
Полное имя : Коммандос (Режиссерская версия) (1985 год) (Commando) (Director's Cut) (1985 Year).mkv
Формат : Matroska
Версия формата : Version 4
Размер файла : 2,05 Гбайт
Продолжительность : 1 ч. 31 м.
Общий поток : 3 195 Кбит/сек
Дата кодирования : UTC 2020-10-22 20:27:42
Программа кодирования : mkvmerge v51.0.0 ('I Wish') 64-bit
Библиотека кодирования : libebml v1.4.0 + libmatroska v1.6.2
Attachments : Лог кодирования.log
Видео
Идентификатор : 1
Формат : AVC
Формат/Информация : Advanced Video Codec
Профиль формата : High@L4.1
Настройки формата : CABAC / 12 Ref Frames
Параметр CABAC формата : Да
Параметр RefFrames формата : 12 кадров
Идентификатор кодека : V_MPEG4/ISO/AVC
Продолжительность : 1 ч. 31 м.
Битрейт : 2 809 Кбит/сек
Ширина : 720 пикселей
Высота : 392 пикселя
Соотношение сторон : 1,85:1
Режим частоты кадров : Постоянный
Частота кадров : 23,976 (24000/1001) кадра/сек
Цветовое пространство : YUV
Субдискретизация насыщенности : 4:2:0
Битовая глубина : 8 бит
Тип развёртки : Прогрессивная
Бит/(Пиксели*Кадры) : 0.415
Размер потока : 1,76 Гбайт (86%)
Заголовок : Коммандос (Режиссерская версия) (1985 год) (Commando) (Director's Cut) (1985 Year)
Библиотека кодирования : x264 core 157 r2969 d4099dd
Настройки программы : cabac=1 / ref=12 / deblock=1:-1:-1 / analyse=0x3:0x133 / me=umh / subme=11 / psy=1 / psy_rd=1.00:0.15 / mixed_ref=1 / me_range=64 / chroma_me=1 / trellis=2 / 8x8dct=1 / cqm=0 / deadzone=21,11 / fast_pskip=0 / chroma_qp_offset=-3 / threads=6 / lookahead_threads=1 / sliced_threads=0 / nr=0 / decimate=0 / interlaced=0 / bluray_compat=0 / constrained_intra=0 / bframes=16 / b_pyramid=2 / b_adapt=2 / b_bias=0 / direct=3 / weightb=1 / open_gop=0 / weightp=2 / keyint=240 / keyint_min=23 / scenecut=40 / intra_refresh=0 / rc_lookahead=60 / rc=2pass / mbtree=0 / bitrate=2809 / ratetol=1.0 / qcomp=0.60 / qpmin=0 / qpmax=69 / qpstep=4 / cplxblur=20.0 / qblur=0.5 / vbv_maxrate=50000 / vbv_bufsize=62500 / nal_hrd=none / filler=0 / ip_ratio=1.40 / pb_ratio=1.30 / aq=1:1.00
Язык : English
Default : Да
Forced : Нет
Аудио #1
Идентификатор : 2
Формат : AC-3
Формат/Информация : Audio Coding 3
Коммерческое название : Dolby Digital
Идентификатор кодека : A_AC3
Продолжительность : 1 ч. 31 м.
Вид битрейта : Постоянный
Битрейт : 192 Кбит/сек
Каналы : 2 канала
Channel layout : L R
Частота : 48,0 КГц
Частота кадров : 31,250 кадров/сек (1536 SPF)
Метод сжатия : С потерями
Размер потока : 126 Мбайт (6%)
Заголовок : Дублированный ''Хлопушка'' с вставками двухголосого ''Премьер Видео Фильм'' (AC-3, Постоянный, 192 Кбит/сек, 2 канала, 48,0 КГц)
Язык : Russian
Service kind : Complete Main
Default : Да
Forced : Нет
Аудио #2
Идентификатор : 3
Формат : AC-3
Формат/Информация : Audio Coding 3
Коммерческое название : Dolby Digital
Идентификатор кодека : A_AC3
Продолжительность : 1 ч. 31 м.
Вид битрейта : Постоянный
Битрейт : 192 Кбит/сек
Каналы : 2 канала
Channel layout : L R
Частота : 48,0 КГц
Частота кадров : 31,250 кадров/сек (1536 SPF)
Метод сжатия : С потерями
Размер потока : 126 Мбайт (6%)
Заголовок : Авторский ''Дмитрий ''Goblin'' Пучков'' с вставками авторского ''Андрей Гаврилов'' (AC-3, Постоянный, 192 Кбит/сек, 2 канала, 48,0 КГц)
Язык : Russian
Service kind : Complete Main
Default : Нет
Forced : Нет
Меню
00:00:00.000 : :Глава 01
00:02:13.967 : :Глава 02
00:03:15.445 : :Глава 03
00:05:32.790 : :Глава 04
00:08:15.077 : :Глава 05
00:11:25.351 : :Глава 06
00:13:22.092 : :Глава 07
00:16:34.702 : :Глава 08
00:19:15.779 : :Глава 09
00:21:53.562 : :Глава 10
00:26:56.489 : :Глава 11
00:29:01.406 : :Глава 12
00:32:46.130 : :Глава 13
00:35:50.982 : :Глава 14
00:38:11.163 : :Глава 15
00:45:26.306 : :Глава 16
00:50:42.080 : :Глава 17
00:55:12.976 : :Глава 18
00:57:59.434 : :Глава 19
01:00:41.596 : :Глава 20
01:06:12.468 : :Глава 21
01:08:25.643 : :Глава 22
01:11:49.054 : :Глава 23
01:14:26.128 : :Глава 24
01:19:23.425 : :Глава 25
01:21:23.378 : :Глава 26
01:26:12.583 : :Глава 27
01:28:47.071 : :Глава 28
Скриншоты:
Если надо вернуться на сидирование раздачи пишите в ЛС.
По вопросам изготовления рипов под заказ обращайтесь в ЛС.
[Профиль] [ЛС]
Показать сообщения:    
Ответить на тему

Текущее время: 24-Май 09:19

Часовой пояс: UTC + 3



Вы не можете начинать темы
Вы не можете отвечать на сообщения
Вы не можете редактировать свои сообщения
Вы не можете удалять свои сообщения
Вы не можете голосовать в опросах
Вы не можете прикреплять файлы к сообщениям
Вы не можете скачивать файлы