Горячие головы! / Hot Shots! (1991) BDRip [H.264]

Ответить на тему
 
Автор Сообщение

MAG3131 ®

Пол: Мужской

Стаж: 52 года

Сообщений: 108

Откуда: Санкт-Петербург

Создавать темы 29-Окт-2020 18:51

[Цитировать]

Горячие головы! / Hot Shots! (1991) BDRip [H.264] - Производство: США / Available Light, Chris Walas Inc., Dream Quest Images, Hansard, Makeup Effects Laboratories Inc., Sessums Engineering
Жанр: боевик, комедия
Режиссер: Джим Абрахамс
Продюсер: Билл Бадалато, Джанет Грэхэм, Стефен МакЭвети
Актеры: Чарли Шин, Кэри Элвес, Валерия Голино, Ллойд Бриджес, Кевин Данн, Джон Крайер, Уильям О’Лири, Кристи Суонсон, Ефрем Цимбалист мл., Билл Ирвин
Описание:
Анекдотичные ситуации на военной базе, где герои, сами того не замечая, пародируют самые известные фильмы, заставят вас безудержно хохотать на протяжении всего фильма. Их горячие головы производят такое количество несуразных идей, что находиться рядом с ними просто опасно для здоровья.

Возраст: 12+ (зрителям, достигшим 12 лет)
Рейтинг MPAA: PG-13 (детям до 13 лет просмотр нежелателен)
Релиз от: MAG3131
Продолжительность: 01:24:47
Качество видео: BDRip
Перевод: Дублированный
Субтитры: Отсутствуют
Видео: AVC/H.264, 720x392, ~2113 kbps, 23,976 fps
Аудио: AC3, 2 ch, 192 kbps (Русский - Дублированный ''Киностудия имени Максима Горького'' с вставками двухголосого ''НТВ+'')

MediaInfo

Общее
Уникальный идентификатор : 59478073822886683917535441757185922172 (0x2CBF0F7281F19B910671D504EB0E547C)
Полное имя : Горячие головы! - 01 (Hot Shots! - 01).mkv
Формат : Matroska
Версия формата : Version 4
Размер файла : 1,36 Гбайт
Продолжительность : 1 ч. 24 м.
Общий поток : 2 303 Кбит/сек
Дата кодирования : UTC 2020-10-29 05:31:45
Программа кодирования : mkvmerge v51.0.0 ('I Wish') 64-bit
Библиотека кодирования : libebml v1.4.0 + libmatroska v1.6.2
Attachments : Лог кодирования.log
Видео
Идентификатор : 1
Формат : AVC
Формат/Информация : Advanced Video Codec
Профиль формата : High@L4.1
Настройки формата : CABAC / 12 Ref Frames
Параметр CABAC формата : Да
Параметр RefFrames формата : 12 кадров
Идентификатор кодека : V_MPEG4/ISO/AVC
Продолжительность : 1 ч. 24 м.
Битрейт : 2 113 Кбит/сек
Ширина : 720 пикселей
Высота : 392 пикселя
Соотношение сторон : 1,85:1
Режим частоты кадров : Постоянный
Частота кадров : 23,976 (24000/1001) кадра/сек
Цветовое пространство : YUV
Субдискретизация насыщенности : 4:2:0
Битовая глубина : 8 бит
Тип развёртки : Прогрессивная
Бит/(Пиксели*Кадры) : 0.312
Размер потока : 1,22 Гбайт (90%)
Заголовок : Горячие головы! - 01 (Hot Shots! - 01)
Библиотека кодирования : x264 core 157 r2969 d4099dd
Настройки программы : cabac=1 / ref=12 / deblock=1:-1:-1 / analyse=0x3:0x133 / me=umh / subme=11 / psy=1 / psy_rd=1.00:0.15 / mixed_ref=1 / me_range=64 / chroma_me=1 / trellis=2 / 8x8dct=1 / cqm=0 / deadzone=21,11 / fast_pskip=0 / chroma_qp_offset=-3 / threads=6 / lookahead_threads=1 / sliced_threads=0 / nr=0 / decimate=0 / interlaced=0 / bluray_compat=0 / constrained_intra=0 / bframes=16 / b_pyramid=2 / b_adapt=2 / b_bias=0 / direct=3 / weightb=1 / open_gop=0 / weightp=2 / keyint=240 / keyint_min=23 / scenecut=40 / intra_refresh=0 / rc_lookahead=60 / rc=2pass / mbtree=0 / bitrate=2113 / ratetol=1.0 / qcomp=0.60 / qpmin=0 / qpmax=69 / qpstep=4 / cplxblur=20.0 / qblur=0.5 / vbv_maxrate=50000 / vbv_bufsize=62500 / nal_hrd=none / filler=0 / ip_ratio=1.40 / pb_ratio=1.30 / aq=1:1.00
Язык : English
Default : Да
Forced : Нет
Аудио
Идентификатор : 2
Формат : AC-3
Формат/Информация : Audio Coding 3
Коммерческое название : Dolby Digital
Идентификатор кодека : A_AC3
Продолжительность : 1 ч. 24 м.
Вид битрейта : Постоянный
Битрейт : 192 Кбит/сек
Каналы : 2 канала
Channel layout : L R
Частота : 48,0 КГц
Частота кадров : 31,250 кадров/сек (1536 SPF)
Метод сжатия : С потерями
Размер потока : 116 Мбайт (8%)
Заголовок : Дублированный ''Киностудия имени Максима Горького'' с вставками двухголосого ''НТВ+'' (AC-3, Постоянный, 192 Кбит/сек, 2 канала, 48,0 КГц)
Язык : Russian
Service kind : Complete Main
Default : Да
Forced : Нет
Меню
00:00:00.000 : :Chapter 01
00:02:22.267 : :Chapter 02
00:04:50.331 : :Chapter 03
00:08:06.944 : :Chapter 04
00:10:09.650 : :Chapter 05
00:11:13.214 : :Chapter 06
00:18:33.028 : :Chapter 07
00:21:34.584 : :Chapter 08
00:26:19.744 : :Chapter 09
00:29:02.449 : :Chapter 10
00:35:13.569 : :Chapter 11
00:37:50.518 : :Chapter 12
00:46:03.635 : :Chapter 13
00:48:37.080 : :Chapter 14
00:53:36.338 : :Chapter 15
00:55:57.729 : :Chapter 16
00:58:52.111 : :Chapter 17
01:04:12.473 : :Chapter 18
01:06:26.941 : :Chapter 19
01:08:35.277 : :Chapter 20
01:11:46.510 : :Chapter 21
01:16:46.768 : :Chapter 22
01:18:45.137 : :Chapter 23
01:19:54.956 : :Chapter 24
01:24:46.873 : :Chapter 25
Скриншоты:
Если надо вернуться на сидирование раздачи пишите в ЛС.
По вопросам изготовления рипов под заказ обращайтесь в ЛС.
[Профиль] [ЛС]
Показать сообщения:    
Ответить на тему

Текущее время: 24-Май 07:51

Часовой пояс: UTC + 3



Вы не можете начинать темы
Вы не можете отвечать на сообщения
Вы не можете редактировать свои сообщения
Вы не можете удалять свои сообщения
Вы не можете голосовать в опросах
Вы не можете прикреплять файлы к сообщениям
Вы не можете скачивать файлы