Миссис Даутфайр / Mrs. Doubtfire (1993) BDRip [H.264]

Ответить на тему
 
Автор Сообщение

MAG3131 ®

Пол: Мужской

Стаж: 52 года

Сообщений: 108

Откуда: Санкт-Петербург

Создавать темы 03-Ноя-2020 03:21

[Цитировать]

Миссис Даутфайр / Mrs. Doubtfire (1993) BDRip [H.264] - Производство: США / 20th Century Fox Film Corporation, Blue Wolf
Жанр: драма, комедия, семейный
Режиссер: Крис Коламбус
Продюсер: Марк Рэдклифф, Марша Гарсес Уильямс, Робин Уильямс
Актеры: Робин Уильямс, Салли Филд, Пирс Броснан, Харви Файерстин, Полли Холлидей, Лиза Якуб, Мэттью Лоуренс, Мара Уилсон, Роберт Проски, Энн Хейни
Описание:
Неприятности сыплются на Дэниеля Хиларда, как из рога изобилия: он теряет работу, от него уходит жена и после развода ему позволено видеть детей всего раз в неделю!
Но Дэниель находит выход - переодевается в женское платье и становится Миссис Даутфайр - пожилой женщиной. Он нанимается к собственной жене в домработницы, и теперь может видеть своих детей каждый день. Последствия, естественно, будут самыми непредсказуемыми.

Возраст: 0+ (для любой зрительской аудитории)
Рейтинг MPAA: PG-13 (детям до 13 лет просмотр нежелателен)
Релиз от: MAG3131
Продолжительность: 02:05:11
Качество видео: BDRip
Перевод: Дублированный
Субтитры: Отсутствуют
Видео: AVC/H.264, 720x312, ~1368 kbps, 23,976 fps
Аудио: AC3, 2 ch, 192 kbps (Русский - Дублированный ''Киностудия имени Максима Горького'' с вставками двухголосого ''РенТВ'')

MediaInfo

Общее
Уникальный идентификатор : 261321121410221352783792630280606129905 (0xC4989E06397F0389ABE2CDDB4D9B1EF1)
Полное имя : Миссис Даутфайр (1993 год) (Mrs. Doubtfire) (1993 Year).mkv
Формат : Matroska
Версия формата : Version 4
Размер файла : 1,36 Гбайт
Продолжительность : 2 ч. 5 м.
Общий поток : 1 560 Кбит/сек
Дата кодирования : UTC 2020-11-02 22:31:26
Программа кодирования : mkvmerge v51.0.0 ('I Wish') 64-bit
Библиотека кодирования : libebml v1.4.0 + libmatroska v1.6.2
Attachments : Лог кодирования.log
Видео
Идентификатор : 1
Формат : AVC
Формат/Информация : Advanced Video Codec
Профиль формата : High@L4.1
Настройки формата : CABAC / 12 Ref Frames
Параметр CABAC формата : Да
Параметр RefFrames формата : 12 кадров
Идентификатор кодека : V_MPEG4/ISO/AVC
Продолжительность : 2 ч. 5 м.
Битрейт : 1 368 Кбит/сек
Ширина : 720 пикселей
Высота : 312 пикселей
Соотношение сторон : 2,35:1
Режим частоты кадров : Постоянный
Частота кадров : 23,976 (24000/1001) кадра/сек
Цветовое пространство : YUV
Субдискретизация насыщенности : 4:2:0
Битовая глубина : 8 бит
Тип развёртки : Прогрессивная
Бит/(Пиксели*Кадры) : 0.254
Размер потока : 1,17 Гбайт (86%)
Заголовок : Миссис Даутфайр (1993 год) (Mrs. Doubtfire) (1993 Year)
Библиотека кодирования : x264 core 157 r2969 d4099dd
Настройки программы : cabac=1 / ref=12 / deblock=1:-1:-1 / analyse=0x3:0x133 / me=umh / subme=11 / psy=1 / psy_rd=1.00:0.15 / mixed_ref=1 / me_range=64 / chroma_me=1 / trellis=2 / 8x8dct=1 / cqm=0 / deadzone=21,11 / fast_pskip=0 / chroma_qp_offset=-3 / threads=6 / lookahead_threads=1 / sliced_threads=0 / nr=0 / decimate=0 / interlaced=0 / bluray_compat=0 / constrained_intra=0 / bframes=16 / b_pyramid=2 / b_adapt=2 / b_bias=0 / direct=3 / weightb=1 / open_gop=0 / weightp=2 / keyint=240 / keyint_min=23 / scenecut=40 / intra_refresh=0 / rc_lookahead=60 / rc=2pass / mbtree=0 / bitrate=1368 / ratetol=1.0 / qcomp=0.60 / qpmin=0 / qpmax=69 / qpstep=4 / cplxblur=20.0 / qblur=0.5 / vbv_maxrate=50000 / vbv_bufsize=62500 / nal_hrd=none / filler=0 / ip_ratio=1.40 / pb_ratio=1.30 / aq=1:1.00
Язык : English
Default : Да
Forced : Нет
Аудио
Идентификатор : 2
Формат : AC-3
Формат/Информация : Audio Coding 3
Коммерческое название : Dolby Digital
Идентификатор кодека : A_AC3
Продолжительность : 2 ч. 5 м.
Вид битрейта : Постоянный
Битрейт : 192 Кбит/сек
Каналы : 2 канала
Channel layout : L R
Частота : 48,0 КГц
Частота кадров : 31,250 кадров/сек (1536 SPF)
Метод сжатия : С потерями
Размер потока : 172 Мбайт (12%)
Заголовок : Дублированный ''Киностудия имени Максима Горького'' с вставками двухголосого ''РенТВ'' (AC-3, Постоянный, 192 Кбит/сек, 2 канала, 48,0 КГц)
Язык : Russian
Service kind : Complete Main
Default : Да
Forced : Нет
Меню
00:00:00.000 : en:Main Titles
00:03:40.762 : en:Daddy
00:06:20.547 : en:Mom
00:07:31.868 : en:The Birthday Party
00:09:47.629 : en:The Party's Over
00:12:16.361 : en:A Temporary Thing
00:14:19.692 : en:Custody Proceedings
00:18:33.863 : en:The Court Liaison
00:19:02.892 : en:I Do Voices
00:21:19.820 : en:Reacquainted with Stu
00:23:53.265 : en:Dad's New Place
00:27:16.426 : en:A Newspaper Ad
00:29:26.598 : en:Classified Responses
00:32:53.054 : en:Transformation
00:36:25.934 : en:Meet Mrs. Doubtfire
00:43:35.822 : en:Daniel's Sister
00:50:46.126 : en:Running a Tight Ship
00:54:28.390 : en:In the Kitchen
00:59:15.761 : en:Getting Into the Role
01:03:07.867 : en:A Gentleman Caller
01:06:26.900 : en:Found Out
01:09:43.179 : en:A Real Dinosaur
01:12:07.448 : en:Girl Talk
01:17:14.797 : en:Beyond Obsession
01:22:15.097 : en:A Surprise Break
01:24:37.572 : en:To Good to Be True
01:29:29.239 : en:Dinner at Bridges
01:34:53.730 : en:Quick Change
01:39:55.823 : en:Show's Over
01:49:42.993 : en:Nobody Like Her
01:56:55.550 : en:The New Babysitter
02:01:01.754 : en:End Titles
Скриншоты:
Если надо вернуться на сидирование раздачи пишите в ЛС.
По вопросам изготовления рипов под заказ обращайтесь в ЛС.
[Профиль] [ЛС]
Показать сообщения:    
Ответить на тему

Текущее время: 24-Май 08:16

Часовой пояс: UTC + 3



Вы не можете начинать темы
Вы не можете отвечать на сообщения
Вы не можете редактировать свои сообщения
Вы не можете удалять свои сообщения
Вы не можете голосовать в опросах
Вы не можете прикреплять файлы к сообщениям
Вы не можете скачивать файлы