Наемные убийцы / Assassins (1995) BDRip [H.264]

Ответить на тему
 
Автор Сообщение

MAG3131 ®

Пол: Мужской

Стаж: 52 года

Сообщений: 108

Откуда: Санкт-Петербург

Создавать темы 11-Ноя-2020 02:22

[Цитировать]

Наемные убийцы / Assassins (1995) BDRip [H.264] - Производство: Франция, США / Canal+ [fr], Donner/Shuler-Donner Productions, Evansgideon/Lazar, Les Productions Lazennec, Silver Pictures, Warner Bros. Pictures
Жанр: боевик, триллер, криминал
Режиссер: Ричард Доннер
Продюсер: Ричард Доннер, Брюс А. Эванс, Рэйнольд Гидеон
Актеры: Сильвестр Сталлоне, Антонио Бандерас, Джулианна Мур, Анатолий Давыдов, Мьюз Уотсон, Стив Кэхэн, Келли Роуэн, Рид Даймонд, Кай Вулфф, Керри Скалски
Описание:
Роберт Рэт - лучший киллер в округе, но кодекс чести и чувство долга, что некогда составляли часть его смертельной карьеры, исчезли. Мир, возникший после Холодной войны, переполнен «отморозками». Рэт хочет «завязать».
Другой киллер, Мигель Бэйн, амбициозный молодой человек - напротив желает стать первым в своем деле, и знает, как это сделать: уничтожить Рэта. Действие разворачивается стремительно и непредсказуемо, когда Сильвестр Сталлоне в роли Рэта и Антонио Бандерас в роли Бэйна защищают свою профессиональную честь наемных убийц.
Джулианна Мур играет хитрого хакера, затянутого в жестокую схватку киллерского дуэта.

Возраст: 16+ (зрителям, достигшим 16 лет)
Рейтинг MPAA: R (лицам до 17 лет обязательно присутствие взрослого)
Релиз от: MAG3131
Продолжительность: 02:12:53
Качество видео: BDRip
Перевод: Дублированный
Субтитры: Отсутствуют
Видео: AVC/H.264, 720x408, ~1823 kbps, 23,976 fps
Аудио #01: AC3, 2 ch, 192 kbps (Русский - Дублированный ''Варус Видео'')
Аудио #02: AC3, 2 ch, 192 kbps (Русский - Дублированный ''Мост-Видео'')

MediaInfo

Общее
Уникальный идентификатор : 85638489629935272823950155748701169606 (0x406D5F87383DF7A09BD454A7861CE7C6)
Полное имя : Наемные убийцы (Assassins).mkv
Формат : Matroska
Версия формата : Version 4
Размер файла : 2,05 Гбайт
Продолжительность : 2 ч. 12 м.
Общий поток : 2 205 Кбит/сек
Дата кодирования : UTC 2020-11-10 22:49:38
Программа кодирования : mkvmerge v51.0.0 ('I Wish') 64-bit
Библиотека кодирования : libebml v1.4.0 + libmatroska v1.6.2
Attachments : Лог кодирования.log
Видео
Идентификатор : 1
Формат : AVC
Формат/Информация : Advanced Video Codec
Профиль формата : High@L4.1
Настройки формата : CABAC / 12 Ref Frames
Параметр CABAC формата : Да
Параметр RefFrames формата : 12 кадров
Идентификатор кодека : V_MPEG4/ISO/AVC
Продолжительность : 2 ч. 12 м.
Битрейт : 1 823 Кбит/сек
Ширина : 720 пикселей
Высота : 408 пикселей
Соотношение сторон : 16:9
Режим частоты кадров : Постоянный
Частота кадров : 23,976 (24000/1001) кадра/сек
Цветовое пространство : YUV
Субдискретизация насыщенности : 4:2:0
Битовая глубина : 8 бит
Тип развёртки : Прогрессивная
Бит/(Пиксели*Кадры) : 0.259
Размер потока : 1,65 Гбайт (81%)
Заголовок : Наемные убийцы (Assassins)
Библиотека кодирования : x264 core 157 r2969 d4099dd
Настройки программы : cabac=1 / ref=12 / deblock=1:-1:-1 / analyse=0x3:0x133 / me=umh / subme=11 / psy=1 / psy_rd=1.00:0.15 / mixed_ref=1 / me_range=64 / chroma_me=1 / trellis=2 / 8x8dct=1 / cqm=0 / deadzone=21,11 / fast_pskip=0 / chroma_qp_offset=-3 / threads=6 / lookahead_threads=1 / sliced_threads=0 / nr=0 / decimate=0 / interlaced=0 / bluray_compat=0 / constrained_intra=0 / bframes=16 / b_pyramid=2 / b_adapt=2 / b_bias=0 / direct=3 / weightb=1 / open_gop=0 / weightp=2 / keyint=240 / keyint_min=23 / scenecut=40 / intra_refresh=0 / rc_lookahead=60 / rc=2pass / mbtree=0 / bitrate=1823 / ratetol=1.0 / qcomp=0.60 / qpmin=0 / qpmax=69 / qpstep=4 / cplxblur=20.0 / qblur=0.5 / vbv_maxrate=50000 / vbv_bufsize=62500 / nal_hrd=none / filler=0 / ip_ratio=1.40 / pb_ratio=1.30 / aq=1:1.00
Язык : English
Default : Да
Forced : Нет
Аудио #1
Идентификатор : 2
Формат : AC-3
Формат/Информация : Audio Coding 3
Коммерческое название : Dolby Digital
Идентификатор кодека : A_AC3
Продолжительность : 2 ч. 12 м.
Вид битрейта : Постоянный
Битрейт : 192 Кбит/сек
Каналы : 2 канала
Channel layout : L R
Частота : 48,0 КГц
Частота кадров : 31,250 кадров/сек (1536 SPF)
Метод сжатия : С потерями
Размер потока : 182 Мбайт (9%)
Заголовок : Дублированный ''Варус Видео'' (AC-3, Постоянный, 192 Кбит/сек, 2 канала, 48,0 КГц)
Язык : Russian
Service kind : Complete Main
Default : Да
Forced : Нет
Аудио #2
Идентификатор : 3
Формат : AC-3
Формат/Информация : Audio Coding 3
Коммерческое название : Dolby Digital
Идентификатор кодека : A_AC3
Продолжительность : 2 ч. 12 м.
Вид битрейта : Постоянный
Битрейт : 192 Кбит/сек
Каналы : 2 канала
Channel layout : L R
Частота : 48,0 КГц
Частота кадров : 31,250 кадров/сек (1536 SPF)
Метод сжатия : С потерями
Размер потока : 182 Мбайт (9%)
Заголовок : Дублированный ''Мост-Видео'' (AC-3, Постоянный, 192 Кбит/сек, 2 канала, 48,0 КГц)
Язык : Russian
Service kind : Complete Main
Default : Нет
Forced : Нет
Меню
00:00:00.000 : :Глава 01
00:05:35.293 : :Глава 02
00:10:00.934 : :Глава 03
00:14:44.467 : :Глава 04
00:17:39.100 : :Глава 05
00:19:01.640 : :Глава 06
00:24:35.015 : :Глава 07
00:30:03.719 : :Глава 08
00:31:34.184 : :Глава 09
00:34:57.804 : :Глава 10
00:36:47.414 : :Глава 11
00:37:56.774 : :Глава 12
00:44:13.442 : :Глава 13
00:48:12.473 : :Глава 14
00:55:02.216 : :Глава 15
00:59:54.925 : :Глава 16
01:03:05.699 : :Глава 17
01:06:50.506 : :Глава 18
01:08:38.448 : :Глава 19
01:12:37.270 : :Глава 20
01:17:07.331 : :Глава 21
01:20:52.556 : :Глава 22
01:22:00.499 : :Глава 23
01:27:24.281 : :Глава 24
01:31:34.989 : :Глава 25
01:35:18.004 : :Глава 26
01:41:39.802 : :Глава 27
01:42:59.840 : :Глава 28
01:46:12.116 : :Глава 29
01:47:33.530 : :Глава 30
01:52:24.196 : :Глава 31
01:55:42.602 : :Глава 32
01:57:09.773 : :Глава 33
01:59:17.984 : :Глава 34
02:01:53.640 : :Глава 35
02:03:05.712 : :Глава 36
02:06:34.879 : :Глава 37
Скриншоты:
Если надо вернуться на сидирование раздачи пишите в ЛС.
По вопросам изготовления рипов под заказ обращайтесь в ЛС.
[Профиль] [ЛС]
Показать сообщения:    
Ответить на тему

Текущее время: 24-Май 09:04

Часовой пояс: UTC + 3



Вы не можете начинать темы
Вы не можете отвечать на сообщения
Вы не можете редактировать свои сообщения
Вы не можете удалять свои сообщения
Вы не можете голосовать в опросах
Вы не можете прикреплять файлы к сообщениям
Вы не можете скачивать файлы