Слежка / Stakeout (1987) WEB-DLRip [H.264]

Ответить на тему
 
Автор Сообщение

MAG3131 ®

Пол: Мужской

Стаж: 52 года

Сообщений: 108

Откуда: Санкт-Петербург

Создавать темы 20-Ноя-2020 23:45

[Цитировать]

Слежка / Stakeout (1987) WEB-DLRip [H.264] - Производство: США / Cinderella, Silver Screen Partners II, Touchstone Pictures
Жанр: боевик, триллер, комедия, криминал
Режиссер: Джон Бэдэм
Продюсер: Джим Кауф, Кэтлин Саммерс, Джон Бэдэм
Актеры: Ричард Дрейфусс, Эмилио Эстевес, Мэделин Стоу, Айдан Куинн, Дэн Лория, Форест Уитакер, Иэн Трейси, Эрл Биллингс, Джексон Дэвис, Дж.Дж. Макаро
Описание:
Полицейские Крис и Билл получают новое и, как всегда, ответственное задание. Им поручено вести наблюдение за бывшей подругой сбежавшего преступника. Сыщики уверены, что опасный злодей обязательно навестит даму своего сердца. Но вместо того, чтобы следить за красавицей, Крис начал заглядываться на нее.
Суровый служитель закона понял, что влюбился. Забыв о предосторожности, Крис решает рассказать девушке о своих чувствах как раз в тот момент, когда на горизонте появился долгожданный подозреваемый...

Возраст: 16+ (зрителям, достигшим 16 лет)
Рейтинг MPAA: R (лицам до 17 лет обязательно присутствие взрослого)
Релиз от: MAG3131
Продолжительность: 01:57:18
Качество видео: WEB-DLRip
Перевод: Дублированный
Субтитры: Отсутствуют
Видео: AVC/H.264, 720x392, ~2307 kbps, 23,976 fps
Аудио: AC3, 2 ch, 192 kbps (Русский - Дублированный ''Творческая группа союза работников дубляжа / РТР'' с вставками многоголосого ''R5 / Уолт Дисней СНГ'')

MediaInfo

Общее
Уникальный идентификатор : 16930319675290187408616086451235454756 (0xCBCA934E02D1D2382E34D3B3D11FF24)
Полное имя : Слежка - 01 (1987 год) (Stakeout - 01) (1987 Year).mkv
Формат : Matroska
Версия формата : Version 4
Размер файла : 2,05 Гбайт
Продолжительность : 1 ч. 57 м.
Общий поток : 2 500 Кбит/сек
Дата кодирования : UTC 2020-11-20 13:25:32
Программа кодирования : mkvmerge v51.0.0 ('I Wish') 64-bit
Библиотека кодирования : libebml v1.4.0 + libmatroska v1.6.2
Attachments : Лог кодирования.log
Видео
Идентификатор : 1
Формат : AVC
Формат/Информация : Advanced Video Codec
Профиль формата : High@L4.1
Настройки формата : CABAC / 12 Ref Frames
Параметр CABAC формата : Да
Параметр RefFrames формата : 12 кадров
Идентификатор кодека : V_MPEG4/ISO/AVC
Продолжительность : 1 ч. 57 м.
Битрейт : 2 307 Кбит/сек
Ширина : 720 пикселей
Высота : 392 пикселя
Соотношение сторон : 1,85:1
Режим частоты кадров : Постоянный
Частота кадров : 23,976 (24000/1001) кадра/сек
Цветовое пространство : YUV
Субдискретизация насыщенности : 4:2:0
Битовая глубина : 8 бит
Тип развёртки : Прогрессивная
Бит/(Пиксели*Кадры) : 0.341
Размер потока : 1,85 Гбайт (90%)
Заголовок : Слежка - 01 (1987 год) (Stakeout - 01) (1987 Year)
Библиотека кодирования : x264 core 157 r2969 d4099dd
Настройки программы : cabac=1 / ref=12 / deblock=1:-1:-1 / analyse=0x3:0x133 / me=umh / subme=11 / psy=1 / psy_rd=1.00:0.15 / mixed_ref=1 / me_range=64 / chroma_me=1 / trellis=2 / 8x8dct=1 / cqm=0 / deadzone=21,11 / fast_pskip=0 / chroma_qp_offset=-3 / threads=6 / lookahead_threads=1 / sliced_threads=0 / nr=0 / decimate=0 / interlaced=0 / bluray_compat=0 / constrained_intra=0 / bframes=16 / b_pyramid=2 / b_adapt=2 / b_bias=0 / direct=3 / weightb=1 / open_gop=0 / weightp=2 / keyint=240 / keyint_min=23 / scenecut=40 / intra_refresh=0 / rc_lookahead=60 / rc=2pass / mbtree=0 / bitrate=2307 / ratetol=1.0 / qcomp=0.60 / qpmin=0 / qpmax=69 / qpstep=4 / cplxblur=20.0 / qblur=0.5 / vbv_maxrate=50000 / vbv_bufsize=62500 / nal_hrd=none / filler=0 / ip_ratio=1.40 / pb_ratio=1.30 / aq=1:1.00
Язык : English
Default : Да
Forced : Нет
Аудио
Идентификатор : 2
Формат : AC-3
Формат/Информация : Audio Coding 3
Коммерческое название : Dolby Digital
Идентификатор кодека : A_AC3
Продолжительность : 1 ч. 57 м.
Вид битрейта : Постоянный
Битрейт : 192 Кбит/сек
Каналы : 2 канала
Channel layout : L R
Частота : 48,0 КГц
Частота кадров : 31,250 кадров/сек (1536 SPF)
Метод сжатия : С потерями
Размер потока : 161 Мбайт (8%)
Заголовок : Дублированный ''Творческая группа союза работников дубляжа / РТР'' с вставками многоголосого ''R5 / Уолт Дисней СНГ'' (AC-3, Постоянный, 192 Кбит/сек, 2 канала, 48,0 КГц)
Язык : Russian
Service kind : Complete Main
Default : Да
Forced : Нет
Меню
00:00:00.000 : en:Chapter 1
00:10:58.000 : en:Chapter 2
00:20:38.000 : en:Chapter 3
00:30:45.000 : en:Chapter 4
00:41:07.000 : en:Chapter 5
00:52:00.000 : en:Chapter 6
01:00:50.000 : en:Chapter 7
01:10:55.000 : en:Chapter 8
01:20:40.000 : en:Chapter 9
01:30:57.000 : en:Chapter 10
01:42:52.000 : en:Chapter 11
01:50:36.000 : en:Chapter 12
Скриншоты:
Если надо вернуться на сидирование раздачи пишите в ЛС.
По вопросам изготовления рипов под заказ обращайтесь в ЛС.
[Профиль] [ЛС]
Показать сообщения:    
Ответить на тему

Текущее время: 24-Май 10:02

Часовой пояс: UTC + 3



Вы не можете начинать темы
Вы не можете отвечать на сообщения
Вы не можете редактировать свои сообщения
Вы не можете удалять свои сообщения
Вы не можете голосовать в опросах
Вы не можете прикреплять файлы к сообщениям
Вы не можете скачивать файлы